BitTorrentTracker PerecTracker.org
BitTorrentTracker PerecTracker.org
    
Регистрация  ·  Вход
 
 · 
Забыли пароль?

  • (Progressive & Art-Rock, Experimental, Jazz-Rock) [CD] Hugh Hopper - 1984 - 2013, FLAC (tracks+.cue), lossless

    Ответить на тему
     
    Автор Сообщение

    Columb

    Создавать темы 23-Янв-2014 08:05

           

    [Цитировать]

    ♦ Hugh Hopper - 1984 ♦
    Жанр: Progressive & Art-Rock, Experimental, Jazz-Rock
    Носитель: CD
    Страна-производитель диска: Japan
    Год издания: 2013
    Издатель (лейбл): Columbia / Sony Music Japan
    Номер по каталогу: SICP 30325
    Аудиокодек: FLAC (*.flac)
    Тип рипа: tracks+.cue
    Битрейт аудио: lossless
    Продолжительность: 01:00:59
    Источник (релизер): ruskaval
    Наличие сканов в содержимом раздачи: да
    Треклист:
    01. Miniluv [14:39]
    02. Minipax I [03:19]
    03. Minipax II [03:13]
    04. Minitrue [01:24]
    05. Miniplenty [17:03]
    06. Minitrue (Reprise) (bonus track) [03:12]
    07. Miniluv (Reprise) (bonus track) [05:03]
    08. Miniluv (Version 1) (bonus track) [02:24]
    09. Miniluv (Version 2) (bonus track) [02:40]
    10. Minitrue (bonus track) [01:51]
    11. Minipax II (Slow Theme) (bonus track) [02:52]
    12. Minipax I (bonus track) [01:07]
    13. Minipax II (Fast Theme) (bonus track) [02:05]

    Лог создания рипа

    Exact Audio Copy V1.0 beta 3 from 29. August 2011
    EAC extraction logfile from 11. January 2014, 23:43
    Hugh Hopper / 1984
    Used drive : TSSTcorpCDDVDW SE-208DB Adapter: 7 ID: 0
    Read mode : SecureUtilize accurate stream : YesDefeat audio cache : YesMake use of C2 pointers : No
    Read offset correction : 6Overread into Lead-In and Lead-Out : NoFill up missing offset samples with silence : YesDelete leading and trailing silent blocks : NoNull samples used in CRC calculations : YesUsed interface : Native Win32 interface for Win NT & 2000Gap handling : Appended to previous track
    Used output format : User Defined EncoderSelected bitrate : 1024 kBit/sQuality : HighAdd ID3 tag : NoCommand line compressor : C:\Program Files (x86)\FLAC Frontend\tools\flac.exeAdditional command line options : -8 -V -T "ARTIST=%artist%" -T "TITLE=%title%" -T "ALBUM=%albumtitle%" -T "DATE=%year%" -T "TRACKNUMBER=%tracknr%" -T "TOTALTRACKS=%numtracks%" -T "GENRE=%genre%" -T "ALBUMARTIST=%albumartist%" -T "ALBUM ARTIST=%albumartist%" -T "COMMENT=EAC Secure Mode, Test & Copy, AccurateRip, FLAC -8" %source%
    TOC of the extracted CD
    Track | Start | Length | Start sector | End sector --------------------------------------------------------- 1 | 0:00.00 | 14:39.31 | 0 | 65955 2 | 14:39.31 | 3:19.55 | 65956 | 80935 3 | 17:59.11 | 3:13.42 | 80936 | 95452 4 | 21:12.53 | 1:24.46 | 95453 | 101798 5 | 22:37.24 | 17:03.43 | 101799 | 178566 6 | 39:40.67 | 3:12.43 | 178567 | 193009 7 | 42:53.35 | 5:03.38 | 193010 | 215772 8 | 47:56.73 | 2:24.62 | 215773 | 226634 9 | 50:21.60 | 2:40.31 | 226635 | 238665 10 | 53:02.16 | 1:51.12 | 238666 | 247002 11 | 54:53.28 | 2:52.70 | 247003 | 259972 12 | 57:46.23 | 1:07.70 | 259973 | 265067 13 | 58:54.18 | 2:05.35 | 265068 | 274477
    Track 1
    Filename D:\_EAC\Hugh Hopper - 1984 (1972) {2013 Japan Mini LP Blu-spec CD2}\01 - Miniluv.wav
    Pre-gap length 0:00:02.00
    Peak level 97.7 % Extraction speed 3.7 X Track quality 100.0 % Test CRC 52DEFBCF Copy CRC 52DEFBCF Track not present in AccurateRip database Copy OK
    Track 2
    Filename D:\_EAC\Hugh Hopper - 1984 (1972) {2013 Japan Mini LP Blu-spec CD2}\02 - Minipax I.wav
    Peak level 97.7 % Extraction speed 3.7 X Track quality 100.0 % Test CRC 3C65952C Copy CRC 3C65952C Track not present in AccurateRip database Copy OK
    Track 3
    Filename D:\_EAC\Hugh Hopper - 1984 (1972) {2013 Japan Mini LP Blu-spec CD2}\03 - Minipax II.wav
    Pre-gap length 0:00:01.60
    Peak level 97.7 % Extraction speed 3.0 X Track quality 99.9 % Test CRC F06D96A1 Copy CRC F06D96A1 Track not present in AccurateRip database Copy OK
    Track 4
    Filename D:\_EAC\Hugh Hopper - 1984 (1972) {2013 Japan Mini LP Blu-spec CD2}\04 - Minitrue.wav
    Pre-gap length 0:00:03.32
    Peak level 97.7 % Extraction speed 3.3 X Track quality 100.0 % Test CRC 16A3224E Copy CRC 16A3224E Track not present in AccurateRip database Copy OK
    Track 5
    Filename D:\_EAC\Hugh Hopper - 1984 (1972) {2013 Japan Mini LP Blu-spec CD2}\05 - Miniplenty.wav
    Peak level 97.7 % Extraction speed 5.1 X Track quality 100.0 % Test CRC 19130D55 Copy CRC 19130D55 Track not present in AccurateRip database Copy OK
    Track 6
    Filename D:\_EAC\Hugh Hopper - 1984 (1972) {2013 Japan Mini LP Blu-spec CD2}\06 - Minitrue (Reprise) (bonus track).wav
    Peak level 97.7 % Extraction speed 3.7 X Track quality 99.9 % Test CRC DBA2897B Copy CRC DBA2897B Track not present in AccurateRip database Copy OK
    Track 7
    Filename D:\_EAC\Hugh Hopper - 1984 (1972) {2013 Japan Mini LP Blu-spec CD2}\07 - Miniluv (Reprise) (bonus track).wav
    Pre-gap length 0:00:03.14
    Peak level 97.7 % Extraction speed 5.4 X Track quality 100.0 % Test CRC ECC4A3CA Copy CRC ECC4A3CA Track not present in AccurateRip database Copy OK
    Track 8
    Filename D:\_EAC\Hugh Hopper - 1984 (1972) {2013 Japan Mini LP Blu-spec CD2}\08 - Miniluv (Version 1) (bonus track).wav
    Pre-gap length 0:00:02.22
    Peak level 97.7 % Extraction speed 4.9 X Track quality 100.0 % Test CRC 59EBBEE3 Copy CRC 59EBBEE3 Track not present in AccurateRip database Copy OK
    Track 9
    Filename D:\_EAC\Hugh Hopper - 1984 (1972) {2013 Japan Mini LP Blu-spec CD2}\09 - Miniluv (Version 2) (bonus track).wav
    Pre-gap length 0:00:01.38
    Peak level 98.4 % Extraction speed 5.0 X Track quality 100.0 % Test CRC 07527A21 Copy CRC 07527A21 Track not present in AccurateRip database Copy OK
    Track 10
    Filename D:\_EAC\Hugh Hopper - 1984 (1972) {2013 Japan Mini LP Blu-spec CD2}\10 - Minitrue (bonus track).wav
    Pre-gap length 0:00:01.57
    Peak level 96.9 % Extraction speed 4.7 X Track quality 100.0 % Test CRC 72DE5DFC Copy CRC 72DE5DFC Track not present in AccurateRip database Copy OK
    Track 11
    Filename D:\_EAC\Hugh Hopper - 1984 (1972) {2013 Japan Mini LP Blu-spec CD2}\11 - Minipax II (Slow Theme) (bonus track).wav
    Pre-gap length 0:00:01.71
    Peak level 97.7 % Extraction speed 5.3 X Track quality 100.0 % Test CRC E1BD01B9 Copy CRC E1BD01B9 Track not present in AccurateRip database Copy OK
    Track 12
    Filename D:\_EAC\Hugh Hopper - 1984 (1972) {2013 Japan Mini LP Blu-spec CD2}\12 - Minipax I (bonus track).wav
    Pre-gap length 0:00:02.23
    Peak level 97.7 % Extraction speed 4.1 X Track quality 100.0 % Test CRC 8C172A93 Copy CRC 8C172A93 Track not present in AccurateRip database Copy OK
    Track 13
    Filename D:\_EAC\Hugh Hopper - 1984 (1972) {2013 Japan Mini LP Blu-spec CD2}\13 - Minipax II (Fast Theme) (bonus track).wav
    Pre-gap length 0:00:02.35
    Peak level 97.7 % Extraction speed 5.1 X Track quality 100.0 % Test CRC 016A1A94 Copy CRC 016A1A94 Track not present in AccurateRip database Copy OK
    None of the tracks are present in the AccurateRip database
    No errors occurred
    End of status report
    ==== Log checksum 2BDD3FCDF6250F0A79A65F8EBF8F6D33934B8DB6A13AFECCBBC1E961C42BB807 ====

    Содержание индексной карты (.CUE)

    REM GENRE RockREM DATE 1972REM DISCID C90E4B0DREM COMMENT "ExactAudioCopy v1.0b3"PERFORMER "Hugh Hopper"TITLE "1984"FILE "01 - Miniluv.wav" WAVE TRACK 01 AUDIO TITLE "Miniluv" PERFORMER "Hugh Hopper" INDEX 01 00:00:00FILE "02 - Minipax I.wav" WAVE TRACK 02 AUDIO TITLE "Minipax I" PERFORMER "Hugh Hopper" INDEX 01 00:00:00 TRACK 03 AUDIO TITLE "Minipax II" PERFORMER "Hugh Hopper" INDEX 00 03:17:70FILE "03 - Minipax II.wav" WAVE INDEX 01 00:00:00 TRACK 04 AUDIO TITLE "Minitrue" PERFORMER "Hugh Hopper" INDEX 00 03:10:10FILE "04 - Minitrue.wav" WAVE INDEX 01 00:00:00FILE "05 - Miniplenty.wav" WAVE TRACK 05 AUDIO TITLE "Miniplenty" PERFORMER "Hugh Hopper" INDEX 01 00:00:00FILE "06 - Minitrue (Reprise) (bonus track).wav" WAVE TRACK 06 AUDIO TITLE "Minitrue (Reprise) (bonus track)" PERFORMER "Hugh Hopper" INDEX 01 00:00:00 TRACK 07 AUDIO TITLE "Miniluv (Reprise) (bonus track)" PERFORMER "Hugh Hopper" INDEX 00 03:09:29FILE "07 - Miniluv (Reprise) (bonus track).wav" WAVE INDEX 01 00:00:00 TRACK 08 AUDIO TITLE "Miniluv (Version 1) (bonus track)" PERFORMER "Hugh Hopper" INDEX 00 05:01:16FILE "08 - Miniluv (Version 1) (bonus track).wav" WAVE INDEX 01 00:00:00 TRACK 09 AUDIO TITLE "Miniluv (Version 2) (bonus track)" PERFORMER "Hugh Hopper" INDEX 00 02:23:24FILE "09 - Miniluv (Version 2) (bonus track).wav" WAVE INDEX 01 00:00:00 TRACK 10 AUDIO TITLE "Minitrue (bonus track)" PERFORMER "Hugh Hopper" INDEX 00 02:38:49FILE "10 - Minitrue (bonus track).wav" WAVE INDEX 01 00:00:00 TRACK 11 AUDIO TITLE "Minipax II (Slow Theme) (bonus track)" PERFORMER "Hugh Hopper" INDEX 00 01:49:16FILE "11 - Minipax II (Slow Theme) (bonus track).wav" WAVE INDEX 01 00:00:00 TRACK 12 AUDIO TITLE "Minipax I (bonus track)" PERFORMER "Hugh Hopper" INDEX 00 02:50:47FILE "12 - Minipax I (bonus track).wav" WAVE INDEX 01 00:00:00 TRACK 13 AUDIO TITLE "Minipax II (Fast Theme) (bonus track)" PERFORMER "Hugh Hopper" INDEX 00 01:05:35FILE "13 - Minipax II (Fast Theme) (bonus track).wav" WAVE INDEX 01 00:00:00

    Состав

    Personnel:
    Bass, Percussion, Saxophone [Soprano], Piano, Bells, Voice, Loops, Mellophone, Performer [Comp, Paper] - Hugh Hopper
    Drums, Percussion - John Marshall
    Guitar - Pye Hastings
    Saxophone [Soprano] - Lol Coxhill
    Saxophone [Tenor] - Gary Windo
    Trombone - Malcolm Griffiths, Nick Evans
    Скачать .torrent

    Скачать торрент-файл бесплатно и на максимальной скорости!

    Как скачивать? · Что такое торрент? · Рейтинг и ограничения

    !ВНИМАНИЕ!
    Сайт не распространяет и не хранит электронные версии произведений, а занимается лишь лишь предоставлением доступа к создаваемому пользователями каталогу ссылок на торрент-файлы, которые содержат только списки хеш-сумм, убедительная просьба с жалобами обращаться напрямую к пользователю. Файлы для обмена на трекере предоставлены пользователями сайта, и администрация не несёт ответственности за их содержание. Просьба не заливать файлы, защищенные авторскими правами, а также файлы нелегального содержания!

    [Профиль] [ЛС]
    Показать сообщения:    
    Ответить на тему

    Текущее время: Сегодня, в 08:58

    Часовой пояс: GMT + 2



    Вы не можете начинать темы
    Вы не можете отвечать на сообщения
    Вы не можете редактировать свои сообщения
    Вы не можете удалять свои сообщения
    Вы не можете голосовать в опросах
    Вы не можете прикреплять файлы к сообщениям
    Вы не можете скачивать файлы