BitTorrentTracker PerecTracker.org
BitTorrentTracker PerecTracker.org
    
Регистрация  ·  Вход
 
 · 
Забыли пароль?

  • Физрук / Fizruk (Сезон 1-3 , Серия 1-61 из 61) (Сергей Сенцов) [2014-2016 , Комедийный Сериал , DVB]

    Ответить на тему
     
    Автор Сообщение

    Враг Нароода

    Создавать темы 14-Апр-2016 20:30

           

    [Цитировать]

    --Физрук / Fizruk Сезон 1-3 , Серия 1- 61 из 61----Год выпуска: 2014-2016
    Выпущено: Россия, Good Story Media по заказу ТНТ
    Жанр:Комедийный Сериал
    Продолжительность: 00:23:00
    Сезон: 1-3
    Серии: 1- 61
    Количество серий в сезоне: 61
    Перевод :Не требуется
    Субтитры: Нет-- --Режиссер: Сергей Сенцов--В ролях: Дмитрий Нагиев, Александр Гордон (II), Полина Гренц, Анастасия Панина, Владимир Сычёв, Даниил Вахрушев, Андрей Крыжний, Артур Сопельник, Оксана Сидоренко, Карина Мишулина, Роман Индык, Елена Муравьёва, Евгений Кулаков, Виктория Клинкова, Екатерина Мельник, Ян Цапник, Екатерина Айсина, Наталья Коренная, Варвара Богданова, Мария Киселёва (II), Иван Мудров, Дмитрий Гогу, Владимир Жеребцов, Владимир Епископосян, Сергей Серов, Сергей Журавлёв, Любовь Германова, Борис Клюев, Дмитрий Власкин-- Это история о столкновении двух времен: «лихих» 90-х и «стабильных» десятых. Главный герой Фома всю жизнь был «правой рукой» влиятельного человека с полукриминальным прошлым. Когда «хозяин» выгнал его на пенсию, Фома решил любым способом вернуться обратно. Сначала казалось, что все будет просто: подобраться к ребенку бывшего босса, прогнуться, напомнить о себе и вернуться в дело. Но план Фомы рушится в первый же день. В школе ему приходится задержаться надолго. Попав в абсолютно незнакомый мир детей и учителей, который кардинально отличается от привычного ему круга, Фома не только меняет свою жизнь, но и меняется сам.----Качество :DVB
    Формат: MKV
    Видео кодек: H264
    Видео: 3134Кбит/сек,720х480(3.2),в 25.000кадр/сек,AVC(Baseline@L3)(1 Ref Frames)
    Аудио Кодек:AC3
    Аудио #1:AC3 , 384 Kbps, 48.0 KHz, 6 ch -Русский--

    MediaInfo 1 сезона

    Уникальный идентификатор : 185284726731554194923761741332375557241 (0x8B648A540C9F571CB441F98653C65479)
    Полное имя : D:\НАШЕ КИНО\ФИЗРУК\Fizruk_2014-2016_S01-S03_[TNT_Russia]_DD5.1_x264_N.В_DVB\S01\Fizruk_2014_S01E01-E04_[TNT_Russia]_DD5.1_x264_N.В_DVB.mkv
    Формат : Matroska
    Версия формата : Version 4 / Version 2
    Размер файла : 2,31 Гбайт
    Продолжительность : 1 ч. 33 м.
    Режим общего битрейта : Переменный
    Общий поток : 3524 Кбит/сек
    Название фильма : Fizruk_2014_S01E01-E04_[TNT_Russia]_DD5.1_x264_N.В_DVB
    Дата кодирования : UTC 2016-04-29 13:26:01
    Программа кодирования : mkvmerge v9.1.0 ('Little Earthquakes') 64bit
    Библиотека кодирования : libebml v1.3.3 + libmatroska v1.4.4
    Видео
    Идентификатор : 1
    Формат : AVC
    Формат/Информация : Advanced Video Codec
    Профиль формата : Baseline@L3
    Параметр CABAC формата : Нет
    Параметр ReFrames формата : 1 кадр
    Параметр GOP формата : M=1, N=12
    Идентификатор кодека : V_MPEG4/ISO/AVC
    Продолжительность : 1 ч. 33 м.
    Вид битрейта : Переменный
    Битрейт : 3137 Кбит/сек
    Максимальный битрейт : 4500 Кбит/сек
    Ширина : 720 пикселей
    Высота : 480 пикселей
    Соотношение сторон : 3:2
    Соотношение сторон в оригинале : 3:2
    Режим частоты кадров : Постоянный
    Частота кадров : 25,000 кадров/сек
    Частота кадров в оригинале : 24,000 кадра/сек
    Цветовое пространство : YUV
    Субдискретизация насыщенности : 4:2:0
    Битовая глубина : 8 бит
    Тип развёртки : Прогрессивная
    Бит/(Пиксели*Кадры) : 0.363
    Размер потока : 2,06 Гбайт (89%)
    Язык : English
    Default : Нет
    Forced : Нет
    Аудио
    Идентификатор : 2
    Формат : AC-3
    Формат/Информация : Audio Coding 3
    Расширение режима : CM (complete main)
    Параметр Endianness формата : Big
    Идентификатор кодека : A_AC3
    Продолжительность : 1 ч. 33 м.
    Вид битрейта : Постоянный
    Битрейт : 384 Кбит/сек
    Каналы : 6 каналов
    Расположение каналов : Front: L C R, Side: L R, LFE
    Частота : 48,0 КГц
    Частота кадров : 31,250 кадров/сек (1536 spf)
    Метод сжатия : С потерями
    Размер потока : 258 Мбайт (11%)
    Заголовок : Russia
    Язык : Russian
    Default : Нет
    Forced : Нет
    --

    MediaInfo 2 сезона

    Общее
    Уникальный идентификатор : 202754975221540358422068530969768849810 (0x98893014A947B3A7B320667AB3C77192)
    Полное имя : D:\НАШЕ КИНО\ФИЗРУК\Fizruk_2014-2016_S02-S03_[TNT_Russia]_DD5.1_x264_N.В_DVB\S02\Fizruk_2014_S03E01-E04_[TNT_Russia]_DD5.1_x264_N.В_DVB.mkv
    Формат : Matroska
    Версия формата : Version 4 / Version 2
    Размер файла : 2,34 Гбайт
    Продолжительность : 1 ч. 35 м.
    Режим общего битрейта : Переменный
    Общий поток : 3523 Кбит/сек
    Название фильма : Fizruk_2014_S03E01-E04_[TNT_Russia]_DD5.1_x264_N.В_DVB
    Дата кодирования : UTC 2016-04-20 07:01:26
    Программа кодирования : mkvmerge v9.0.1 ('Obstacles') 64bit
    Библиотека кодирования : libebml v1.3.3 + libmatroska v1.4.4
    Видео
    Идентификатор : 1
    Формат : AVC
    Формат/Информация : Advanced Video Codec
    Профиль формата : Baseline@L3
    Параметр CABAC формата : Нет
    Параметр ReFrames формата : 1 кадр
    Параметр GOP формата : M=1, N=12
    Идентификатор кодека : V_MPEG4/ISO/AVC
    Продолжительность : 1 ч. 35 м.
    Вид битрейта : Переменный
    Битрейт : 3137 Кбит/сек
    Максимальный битрейт : 4500 Кбит/сек
    Ширина : 720 пикселей
    Высота : 480 пикселей
    Соотношение сторон : 3:2
    Соотношение сторон в оригинале : 3:2
    Режим частоты кадров : Постоянный
    Частота кадров : 25,000 кадров/сек
    Частота кадров в оригинале : 24,000 кадра/сек
    Цветовое пространство : YUV
    Субдискретизация насыщенности : 4:2:0
    Битовая глубина : 8 бит
    Тип развёртки : Прогрессивная
    Бит/(Пиксели*Кадры) : 0.363
    Размер потока : 2,08 Гбайт (89%)
    Язык : English
    Default : Нет
    Forced : Нет
    Аудио
    Идентификатор : 2
    Формат : AC-3
    Формат/Информация : Audio Coding 3
    Расширение режима : CM (complete main)
    Параметр Endianness формата : Big
    Идентификатор кодека : A_AC3
    Продолжительность : 1 ч. 35 м.
    Вид битрейта : Постоянный
    Битрейт : 384 Кбит/сек
    Каналы : 6 каналов
    Расположение каналов : Front: L C R, Side: L R, LFE
    Частота : 48,0 КГц
    Частота кадров : 31,250 кадров/сек (1536 spf)
    Метод сжатия : С потерями
    Размер потока : 261 Мбайт (11%)
    Заголовок : Russian
    Язык : Russian
    Default : Нет
    Forced : Нет
    --

    MediaInfo 3 сезона

    Общее
    Уникальный идентификатор : 253392425264832659791373068309322127691 (0xBEA19B1F876D90BC9DB9183BA1F5D94B)
    Полное имя : E:\К ИНО\Н А Ш Е К И Н О\ФИЗРУК\Fizruk_2016_S03_[TNT_Russia]_DD5.1_x264_N.В_DVB\Fizruk_2016_S03E01-E04_[TNT_Russia]_DD5.1_x264_N.В_DVB.mkv
    Формат : Matroska
    Версия формата : Version 4 / Version 2
    Размер файла : 2,38 Гбайт
    Продолжительность : 1 ч. 36 м.
    Режим общего битрейта : Переменный
    Общий поток : 3520 Кбит/сек
    Название фильма : Fizruk_2016_S03E01-E04_[TNT_Russia]_DD5.1_x264_N.В_DVB
    Дата кодирования : UTC 2016-04-09 13:28:18
    Программа кодирования : mkvmerge v9.0.1 ('Obstacles') 64bit
    Библиотека кодирования : libebml v1.3.3 + libmatroska v1.4.4
    Видео
    Идентификатор : 1
    Формат : AVC
    Формат/Информация : Advanced Video Codec
    Профиль формата : Baseline@L3
    Параметр CABAC формата : Нет
    Параметр ReFrames формата : 1 кадр
    Параметр GOP формата : M=1, N=12
    Идентификатор кодека : V_MPEG4/ISO/AVC
    Продолжительность : 1 ч. 36 м.
    Вид битрейта : Переменный
    Битрейт : 3134 Кбит/сек
    Максимальный битрейт : 4500 Кбит/сек
    Ширина : 720 пикселей
    Высота : 480 пикселей
    Соотношение сторон : 3:2
    Соотношение сторон в оригинале : 3:2
    Режим частоты кадров : Постоянный
    Частота кадров : 25,000 кадров/сек
    Частота кадров в оригинале : 24,000 кадра/сек
    Цветовое пространство : YUV
    Субдискретизация насыщенности : 4:2:0
    Битовая глубина : 8 бит
    Тип развёртки : Прогрессивная
    Бит/(Пиксели*Кадры) : 0.363
    Размер потока : 2,11 Гбайт (89%)
    Заголовок : Fizruk_2016_S03E01-E04_[TNT_Russia]_DD5.1_x264_N.В_DVB
    Язык : English
    Default : Нет
    Forced : Нет
    Аудио
    Идентификатор : 2
    Формат : AC-3
    Формат/Информация : Audio Coding 3
    Расширение режима : CM (complete main)
    Параметр Endianness формата : Big
    Идентификатор кодека : A_AC3
    Продолжительность : 1 ч. 36 м.
    Вид битрейта : Постоянный
    Битрейт : 384 Кбит/сек
    Каналы : 6 каналов
    Расположение каналов : Front: L C R, Side: L R, LFE
    Частота : 48,0 КГц
    Частота кадров : 31,250 кадров/сек (1536 spf)
    Метод сжатия : С потерями
    Размер потока : 265 Мбайт (11%)
    Заголовок : Russian
    Default : Нет
    Forced : Нет
    --

    Скриншоты

    1сезон

    2сезон

    3 сезон
    -- 1СЕЗОН-- 2СЕЗОН-- 3СЕЗОН--

    Как закачать отдельный файл

    1. Открыть торрент
    2. Снять галки с тех файлов торрента, которые мы не хотим закачивать. Оставляем только на нужных нам файлах (файле).
    3. Нажать О.К.
    В клиенте utorrent
    Инструкция
    1) Открыть торрент

    2) Снять галки с тех файлов торрента, которые мы не хотим закачивать:
    * либо вручную, снимая с каждого файла галку( скрин №1)
    * либо, нажав кнопку "Снять метки (Select None)", сняв сразу со всех файлов(скрин №2)
    №1

    №2

    Оставляем только на нужных нам файлах (файле).

    3)Нажать О.К
    ------Внимание!!! 12.05. 2016. РАЗДАЧА ОБНОВЛЕНА. ОБНОВИТЕ ТОРЕНТ ФАЙЛ.ПРИЯТНОГО ПРОСМОТРА . ФИНАЛ СЕЗОНА. --Релиз от: Nikolai.Baranov & PIRATIYA --------
    Скачать .torrent

    Скачать торрент-файл бесплатно и на максимальной скорости!

    Как скачивать? · Что такое торрент? · Рейтинг и ограничения

    !ВНИМАНИЕ!
    Сайт не распространяет и не хранит электронные версии произведений, а занимается лишь лишь предоставлением доступа к создаваемому пользователями каталогу ссылок на торрент-файлы, которые содержат только списки хеш-сумм, убедительная просьба с жалобами обращаться напрямую к пользователю. Файлы для обмена на трекере предоставлены пользователями сайта, и администрация не несёт ответственности за их содержание. Просьба не заливать файлы, защищенные авторскими правами, а также файлы нелегального содержания!


    _________________

    Легко быть оптимистом, когда судьба не валит с ног тяжелыми ударами, а лишь иногда легонько шлепает по заднице.
    [Профиль] [ЛС]
    Показать сообщения:    
    Ответить на тему

    Текущее время: Сегодня, в 16:02

    Часовой пояс: GMT + 2



    Вы не можете начинать темы
    Вы не можете отвечать на сообщения
    Вы не можете редактировать свои сообщения
    Вы не можете удалять свои сообщения
    Вы не можете голосовать в опросах
    Вы не можете прикреплять файлы к сообщениям
    Вы не можете скачивать файлы