BitTorrentTracker PerecTracker.org
BitTorrentTracker PerecTracker.org
    
Регистрация  ·  Вход
 
 · 
Забыли пароль?

  • Волк / Wolf (Майк Николс / Mike Nichols) [1994, США, ужасы, триллер, драма, мелодрама, BDRemux 1080p] 2x Dub (Blu-ray CEE, Ленфильм) + 2x MVO (СТС, Видеосервис) + 5x AVO (Горчаков, Гаврилов, Сербин, Живов, Визгунов) + Sub Rus, Eng + Original Eng

    Ответить на тему
     
    Автор Сообщение

    Light

    Создавать темы 14-Апр-2016 18:18

           

    [Цитировать]

    -Волк / Wolf-Страна: США
    Жанр: ужасы, триллер, драма, мелодрама
    Год выпуска: 1994
    Продолжительность: 02:05:20-Перевод 1: Профессиональный (дублированный) Blu-ray CEE
    Перевод 2: Профессиональный (дублированный) Ленфильм
    Перевод 3: Профессиональный (многоголосый закадровый) СТС
    Перевод 4: Профессиональный (многоголосый закадровый) Видеосервис
    Перевод 5: Авторский (одноголосый закадровый) Горчаков
    Перевод 6: Авторский (одноголосый закадровый) Гаврилов
    Перевод 7: Авторский (одноголосый закадровый) Сербин
    Перевод 8: Авторский (одноголосый закадровый) Живов
    Перевод 9: Авторский (одноголосый закадровый) Визгунов
    Cубтитры: русские, английские
    Оригинальная аудиодорожка: английский-Режиссер: Майк Николс / Mike Nichols
    В ролях: Джек Николсон , Мишель Пфайффер, Кэйт Неллигэн, Кристофер Пламмер, Джеймс Спэйдер, Брайан Маркинсон, Ричард Дженкинс, Ом Пури, Рон Рифкин, Прунелла Скэйлс, Питер Герети, Брэдфорд Инглиш, Томас Ф. Даффи.-Описание: Уилл Рэндалл живет двойной жизнью. Днем он - преуспевающий книгоиздатель, ночью - порождение преисподней, зверь, убивающий все живое. Но такая жизнь не угнетает его - он безнаказан и свободен, а инстинкты хищника не только не мешают, а наоборот помогают ему жить. На первый взгляд он - обычный человек, но взгляните ему в глаза. Это - глаза Волка.-Сэмпл-Тип релиза: BDRemux 1080p
    Контейнер: MKV
    Видео: MPEG-4 AVC Video / 27742 kbps / 1080p / 23.976 fps / 16:9 / High Profile 4.1
    Аудио: Russian: 48 kHz, AC3, 3/2 (L,C,R,l,r) + LFE ch, ~640 kbps avg |Дубляж, Blu-ray CEE|
    Аудио 2: Russian: 48 kHz, AC3, 2/0 (L,R) ch, ~192 kbps avg |Дубляж, Ленфильм|
    Аудио 3: Russian: 48 kHz, AC3, 2/0 (L,R) ch, ~192 kbps avg |Многоголосый закадровый, СТС|
    Аудио 4: Russian: DTS-HD Master Audio / 5.1 / 48 kHz / 2958 kbps / 24-bit (DTS Core: 5.1 / 48 kHz / 1509 kbps / 24-bit) |Многоголосый закадровый, Видеосервис|
    Аудио 5: Russian: DTS-HD Master Audio / 5.1 / 48 kHz / 2953 kbps / 24-bit (DTS Core: 5.1 / 48 kHz / 1509 kbps / 24-bit) |В.Горчаков|
    Аудио 6: Russian: DTS-HD Master Audio / 5.1 / 48 kHz / 2954 kbps / 24-bit (DTS Core: 5.1 / 48 kHz / 1509 kbps / 24-bit) |А.Гаврилов|
    Аудио 7: Russian: DTS-HD Master Audio / 5.1 / 48 kHz / 2967 kbps / 24-bit (DTS Core: 5.1 / 48 kHz / 1509 kbps / 24-bit) |Ю.Сербин|
    Аудио 8: Russian: DTS-HD Master Audio / 5.1 / 48 kHz / 2961 kbps / 24-bit (DTS Core: 5.1 / 48 kHz / 1509 kbps / 24-bit) |Ю.Живов|
    Аудио 9: Russian: 48 kHz, AC3, 2/0 (L,R) ch, ~192 kbps avg |С.Визгунов|
    Аудио 10: English / DTS-HD Master Audio / 5.1 / 48 kHz / 2939 kbps / 24-bit (DTS Core: 5.1 / 48 kHz / 1509 kbps / 24-bit)
    Аудио 11: Ukrainian: 48 kHz, AC3, 2/0 (L,R) ch, ~192 kbps avg |Многоголосый закадровый, Интер|
    Формат субтитров: softsub (SRT)

    MI

    GeneralUnique ID : 182487638590875568385806690356924891430 (0x8949D73C53BBFC17A6FC739533A1C126)Complete name : S:\На хранении\Волк (1994. Wolf).mkvFormat : MatroskaFormat version : Version 4 / Version 2File size : 41.1 GiBDuration : 2h 5mnOverall bit rate mode : VariableOverall bit rate : 46.9 MbpsMovie name : Release for RuTrackerEncoded date : UTC 2016-04-13 10:12:24Writing application : mkvmerge v9.0.1 ('Obstacles') 64bitWriting library : libebml v1.3.3 + libmatroska v1.4.4Cover : YesAttachments : Cover.jpg
    VideoID : 1Format : AVCFormat/Info : Advanced Video CodecFormat profile : High@L4.1Format settings, CABAC : YesFormat settings, ReFrames : 2 framesFormat settings, GOP : M=1, N=10Codec ID : V_MPEG4/ISO/AVCDuration : 2h 5mnBit rate mode : VariableBit rate : 27.7 MbpsWidth : 1 920 pixelsHeight : 1 080 pixelsDisplay aspect ratio : 16:9Frame rate mode : ConstantFrame rate : 23.976 (24000/1001) fpsColor space : YUVChroma subsampling : 4:2:0Bit depth : 8 bitsScan type : ProgressiveBits/(Pixel*Frame) : 0.558Stream size : 24.3 GiB (59%)Language : EnglishDefault : YesForced : No
    Audio #1ID : 2Format : AC-3Format/Info : Audio Coding 3Mode extension : CM (complete main)Format settings, Endianness : BigCodec ID : A_AC3Duration : 2h 5mnBit rate mode : ConstantBit rate : 640 KbpsChannel(s) : 6 channelsChannel positions : Front: L C R, Side: L R, LFESampling rate : 48.0 KHzFrame rate : 31.250 fps (1536 spf)Compression mode : LossyStream size : 574 MiB (1%)Title : Дубляж [Blu-ray CEE]Language : RussianDefault : YesForced : No
    Audio #2ID : 3Format : AC-3Format/Info : Audio Coding 3Mode extension : CM (complete main)Format settings, Endianness : BigCodec ID : A_AC3Duration : 2h 5mnBit rate mode : ConstantBit rate : 192 KbpsChannel(s) : 2 channelsChannel positions : Front: L RSampling rate : 48.0 KHzFrame rate : 31.250 fps (1536 spf)Compression mode : LossyStream size : 172 MiB (0%)Title : Дубляж [Ленфильм]Language : RussianDefault : NoForced : No
    Audio #3ID : 4Format : AC-3Format/Info : Audio Coding 3Mode extension : CM (complete main)Format settings, Endianness : BigCodec ID : A_AC3Duration : 2h 5mnBit rate mode : ConstantBit rate : 192 KbpsChannel(s) : 2 channelsChannel positions : Front: L RSampling rate : 48.0 KHzFrame rate : 31.250 fps (1536 spf)Compression mode : LossyStream size : 172 MiB (0%)Title : MVO [СТС]Language : RussianDefault : NoForced : No
    Audio #4ID : 5Format : DTSFormat/Info : Digital Theater SystemsFormat profile : MA / CoreMode : 16Format settings, Endianness : BigCodec ID : A_DTSDuration : 2h 5mnBit rate mode : Variable / ConstantBit rate : 2 958 Kbps / 1 509 KbpsChannel(s) : 6 channelsChannel positions : Front: L C R, Side: L R, LFESampling rate : 48.0 KHzFrame rate : 93.750 fps (512 spf)Bit depth : 24 bitsCompression mode : Lossless / LossyStream size : 2.59 GiB (6%)Title : MVO [Видеосервис]Language : RussianDefault : NoForced : No
    Audio #5ID : 6Format : DTSFormat/Info : Digital Theater SystemsFormat profile : MA / CoreMode : 16Format settings, Endianness : BigCodec ID : A_DTSDuration : 2h 5mnBit rate mode : Variable / ConstantBit rate : 2 953 Kbps / 1 509 KbpsChannel(s) : 6 channelsChannel positions : Front: L C R, Side: L R, LFESampling rate : 48.0 KHzFrame rate : 93.750 fps (512 spf)Bit depth : 24 bitsCompression mode : Lossless / LossyStream size : 2.59 GiB (6%)Title : Василий ГорчаковLanguage : RussianDefault : NoForced : No
    Audio #6ID : 7Format : DTSFormat/Info : Digital Theater SystemsFormat profile : MA / CoreMode : 16Format settings, Endianness : BigCodec ID : A_DTSDuration : 2h 5mnBit rate mode : Variable / ConstantBit rate : 2 954 Kbps / 1 509 KbpsChannel(s) : 6 channelsChannel positions : Front: L C R, Side: L R, LFESampling rate : 48.0 KHzFrame rate : 93.750 fps (512 spf)Bit depth : 24 bitsCompression mode : Lossless / LossyStream size : 2.59 GiB (6%)Title : Андрей ГавриловLanguage : RussianDefault : NoForced : No
    Audio #7ID : 8Format : DTSFormat/Info : Digital Theater SystemsFormat profile : MA / CoreMode : 16Format settings, Endianness : BigCodec ID : A_DTSDuration : 2h 5mnBit rate mode : Variable / ConstantBit rate : 2 967 Kbps / 1 509 KbpsChannel(s) : 6 channelsChannel positions : Front: L C R, Side: L R, LFESampling rate : 48.0 KHzFrame rate : 93.750 fps (512 spf)Bit depth : 24 bitsCompression mode : Lossless / LossyStream size : 2.60 GiB (6%)Title : Юрий СербинLanguage : RussianDefault : NoForced : No
    Audio #8ID : 9Format : DTSFormat/Info : Digital Theater SystemsFormat profile : MA / CoreMode : 16Format settings, Endianness : BigCodec ID : A_DTSDuration : 2h 5mnBit rate mode : Variable / ConstantBit rate : 2 961 Kbps / 1 509 KbpsChannel(s) : 6 channelsChannel positions : Front: L C R, Side: L R, LFESampling rate : 48.0 KHzFrame rate : 93.750 fps (512 spf)Bit depth : 24 bitsCompression mode : Lossless / LossyStream size : 2.59 GiB (6%)Title : Юрий ЖивовLanguage : RussianDefault : NoForced : No
    Audio #9ID : 10Format : AC-3Format/Info : Audio Coding 3Mode extension : CM (complete main)Format settings, Endianness : BigCodec ID : A_AC3Duration : 2h 5mnBit rate mode : ConstantBit rate : 192 KbpsChannel(s) : 2 channelsChannel positions : Front: L RSampling rate : 48.0 KHzFrame rate : 31.250 fps (1536 spf)Compression mode : LossyStream size : 172 MiB (0%)Title : Сергей ВизгуновLanguage : RussianDefault : NoForced : No
    Audio #10ID : 11Format : DTSFormat/Info : Digital Theater SystemsFormat profile : MA / CoreMode : 16Format settings, Endianness : BigCodec ID : A_DTSDuration : 2h 5mnBit rate mode : Variable / ConstantBit rate : 2 939 Kbps / 1 509 KbpsChannel(s) : 6 channelsChannel positions : Front: L C R, Side: L R, LFESampling rate : 48.0 KHzFrame rate : 93.750 fps (512 spf)Bit depth : 24 bitsCompression mode : Lossless / LossyStream size : 2.57 GiB (6%)Language : EnglishDefault : NoForced : No
    Audio #11ID : 12Format : AC-3Format/Info : Audio Coding 3Mode extension : CM (complete main)Format settings, Endianness : BigCodec ID : A_AC3Duration : 2h 5mnBit rate mode : ConstantBit rate : 192 KbpsChannel(s) : 2 channelsChannel positions : Front: L RSampling rate : 48.0 KHzFrame rate : 31.250 fps (1536 spf)Compression mode : LossyStream size : 172 MiB (0%)Title : MVO [Интер]Language : UkrainianDefault : NoForced : No
    Text #1ID : 13Format : UTF-8Codec ID : S_TEXT/UTF8Codec ID/Info : UTF-8 Plain TextDuration : 43mn 6sBit rate : 0 bpsCount of elements : 3Stream size : 114 Bytes (0%)Title : forcedLanguage : RussianDefault : YesForced : Yes
    Text #2ID : 14Format : UTF-8Codec ID : S_TEXT/UTF8Codec ID/Info : UTF-8 Plain TextDuration : 1h 59mnBit rate : 61 bpsCount of elements : 784Stream size : 54.1 KiB (0%)Language : RussianDefault : NoForced : No
    Text #3ID : 15Format : UTF-8Codec ID : S_TEXT/UTF8Codec ID/Info : UTF-8 Plain TextDuration : 1h 56mnBit rate : 50 bpsCount of elements : 1245Stream size : 43.0 KiB (0%)Language : EnglishDefault : NoForced : No
    Menu00:00:00.000 : en:Chapter 100:10:16.490 : en:Chapter 200:16:22.231 : en:Chapter 300:25:21.853 : en:Chapter 400:36:04.328 : en:Chapter 500:46:52.893 : en:Chapter 600:49:16.745 : en:Chapter 700:57:28.778 : en:Chapter 801:05:15.995 : en:Chapter 901:08:02.078 : en:Chapter 1001:17:03.285 : en:Chapter 1101:26:06.661 : en:Chapter 1201:40:57.676 : en:Chapter 1301:44:42.317 : en:Chapter 1401:52:01.047 : en:Chapter 1501:54:29.863 : en:Chapter 16
    Скриншоты

    Зеркало


    Цитата:
    Цитата:

    • Релиз . Спасибо Spiellberg!
    • Чистые голоса Видеосервиса были выкуплены в рамках сервиса от HDCLUB "Озвучивание". Спонсоры: gelom, zavin, Spiellberg, timur1965, Semvlk, sg77, tambov68. Для меценатов раздача золотом.
    • Дорожки №4-8 получены путем наложения чистых голосов на центральный канал оригинального DTS-HD MA.
    • В дубляже №2 присутствуют вставки из MVO, дорожка плохого качества добавлена сугубо для ценителей.
    • За украинскую дорожку спасибо трекеру Hurtom.
    • Сохранены оригинальные чаптеры как на Blu-ray.
    Скачать .torrent

    Скачать торрент-файл бесплатно и на максимальной скорости!

    Как скачивать? · Что такое торрент? · Рейтинг и ограничения

    !ВНИМАНИЕ!
    Сайт не распространяет и не хранит электронные версии произведений, а занимается лишь лишь предоставлением доступа к создаваемому пользователями каталогу ссылок на торрент-файлы, которые содержат только списки хеш-сумм, убедительная просьба с жалобами обращаться напрямую к пользователю. Файлы для обмена на трекере предоставлены пользователями сайта, и администрация не несёт ответственности за их содержание. Просьба не заливать файлы, защищенные авторскими правами, а также файлы нелегального содержания!


    _________________
    [Профиль] [ЛС]
    Показать сообщения:    
    Ответить на тему

    Текущее время: Сегодня, в 12:11

    Часовой пояс: GMT + 2



    Вы не можете начинать темы
    Вы не можете отвечать на сообщения
    Вы не можете редактировать свои сообщения
    Вы не можете удалять свои сообщения
    Вы не можете голосовать в опросах
    Вы не можете прикреплять файлы к сообщениям
    Вы не можете скачивать файлы