Register  ·  Log in
Forgot password?

  • Обычное шоу: Фильм / Обычный мультик в кино / Regular Show. The Movie (Дж.Дж. Куинтел / J.G. Quintel) [2015, США, мультфильм, фантастика, комедия, приключения, WEB-DLRip] Dub + Sub Rus

    Reply to topic
    Author Message


    Post 14-Apr-2016 19:18



    Обычное шоу: Фильм / Обычный мультик в кино / Regular Show. The Movie--Страна: США
    Жанр: Мультфильм, фантастика, комедия, приключения
    Продолжительность: 01:08:39
    Год выпуска: 2015
    -Перевод: Профессиональный (дублированный)
    Субтитры: русские, на места без перевода (форсированные, внешние, srt)
    Режиссёры: Дж.Дж. Куинтел / J.G. Quintel
    -В ролях:
    Дж.Дж. Куинтел, Уильям Салиерс, Сэм Марин, Марк Хэмилл, Джейсон Манцукас, Дэвид Кокнер, Стивен Блум, Али Хиллис, Минти Льюис
    Мордекаю и Ригби выпадает непростое испытание. Им необходимо в кратчайшие сроки спасти Вселенную, а также свою дружбу.
    -Релиз групп All Films и RGСэмпл:Качество: WEB-DLRip - Исходник (Спасибо -Azureus-)
    Формат: AVI
    Видео: 720x400 (1.80:1), 23.976 fps, XviD build 73 ~1313 kbps avg, 0.19 bit/pixel
    Аудио: 48 kHz, AC3 Dolby Digital, 2/0 (L,R) ch, ~192 kbps

    Доп. информация

    В дубляже в некоторых местах (00:36:52-00:36:55, 01:01:29-01:01:30, 01:03:23-01:04:10) отсутствует озвучка, в место неё были сделаны форсированные русские субтитры.


    Отчёт MediaInfo

    Complete name : C:\Users\Максим\Desktop\Мои релизы\Regular.Show.The.Movie.2015.WEB-DLRip.polkera.avi
    Format : AVI
    Format/Info : Audio Video Interleave
    File size : 744 MiB
    Duration : 1h 8mn
    Overall bit rate : 1 514 Kbps
    Writing application : VirtualDubMod | || (build 2550/release)
    Writing library : VirtualDubMod build 2550/release
    Format : MPEG-4 Visual
    Format profile : Streaming Video@L1
    Format settings, BVOP : Yes
    Format settings, QPel : No
    Format settings, GMC : No warppoints
    Format settings, Matrix : Custom
    Codec ID : XVID
    Codec ID/Hint : XviD
    Duration : 1h 8mn
    Bit rate : 1 313 Kbps
    Width : 720 pixels
    Height : 400 pixels
    Display aspect ratio : 16/9
    Frame rate : 23.976 fps
    Resolution : 24 bits
    Colorimetry : 4:2:0
    Scan type : Progressive
    Bits/(Pixel*Frame) : 0.190
    Stream size : 645 MiB (87%)
    Writing library : XviD 73
    Format : AC-3
    Format/Info : Audio Coding 3
    Codec ID : 2000
    Duration : 1h 8mn
    Bit rate mode : Constant
    Bit rate : 192 Kbps
    Channel(s) : 2 channels
    Channel positions : L R
    Sampling rate : 48.0 KHz
    Stream size : 94.3 MiB (13%)
    Alignment : Split accross interleaves
    Interleave, duration : 42 ms (1.00 video frame)
    Interleave, preload duration : 500 ms



    Download .torrent

    Download free and at maximum speed!

    How to Download? · What is a torrent? · Ratings and Limitations

    The site does not extend and does not store electronic(digital) versions of products, and only gives access to a reference catalogue created by users on torrent-files which contain only lists of the hash-sums, the earnest entreaty, with complaints(abuse) to access directly to the user. Files for an exchange on tracker are given by users of a site, and the administration does not bear the responsibility for their maintenance. The request to not fill in the files protected by copyrights, and also files of the illegal maintenance!

    [Profile] [PM]
    Display posts from previous:    
    Reply to topic

    The time now is: Today 17:16

    All times are GMT + 3 Hours

    You cannot post new topics in this forum
    You cannot reply to topics in this forum
    You cannot edit your posts in this forum
    You cannot delete your posts in this forum
    You cannot vote in polls in this forum
    You cannot attach files in this forum
    You cannot download files in this forum