BitTorrentTracker PerecTracker.org
BitTorrentTracker PerecTracker.org
    
Регистрация  ·  Вход
 
 · 
Забыли пароль?

  • Лига Справедливости против Юных Титанов / Justice League vs. Teen Titans (Сэм Лью / Sam Liu) [2016, США, мультфильм, боевик, фантастика, фэнтези, BDRip] MVO + Original Eng + Sub (Rus, Eng)

    Ответить на тему
     
    Автор Сообщение

    Flirldrerve

    Создавать темы 14-Апр-2016 14:06

           

    [Цитировать]

    Лига Справедливости против Юных Титанов / Justice League vs. Teen Titans--Страна: США
    Жанр: Мультфильм, боевик, фантастика, фэнтези
    Продолжительность: 01:19:10
    Год выпуска: 2016
    -Перевод: Любительский (многоголосый, закадровый) | Saint Sound
    Субтитры: русские + английские (полные, внешние, srt)
    Режиссёр: Сэм Лью / Sam Liu
    -В ролях:
    Розарио Доусон, Кристофер Горам, Шемар Мур, Джерри О’Коннелл, Джейсон О’Мара, Стюарт Аллан, Джейк Т. Остин, Таисса Фармига, Шон Маэр, Брэндон Су Ху
    -Описание:
    Хитроумному демону Тригону удалось завладеть разумом отважных членов Лиги. И подвластные ему супергерои сами начали бесчинствовать. Кроме юных титанов, успевших немного поучиться от старших соратников, встать на защиту порядка некому. В неравном бою придется столкнуться матерым и опытным бойцам со злом, невольно перешедшим на сторону противника, и начинающим заступникам человечества. Впереди их ожидает зрелищная битва, кто окажется победителем, предугадать невозможно!
    -Релиз групп All Films и RG Torrents.ru-Сэмпл: https://www.sendspace.com/file/vi5qez-Качество: BDRip - Исходник (Спасибо -Azureus-)
    Формат: AVI
    Видео: 704x400 (1.76:1), 23.976 fps, XviD MPEG-4 ~1727 kbps avg, 0.26 bit/pixel
    Аудио: 48 kHz, AC3 Dolby Digital, 3/2 (L,C,R,l,r) + LFE ch, ~448 kbps | Rus
    Аудио 2: 48 kHz, AC3 Dolby Digital, 3/2 (L,C,R,l,r) + LFE ch, ~448 kbps | Eng
    -

    Отчёт MediaInfo

    General
    Complete name : C:\Users\Максим\Desktop\Мои релизы\Justice.League.vs..Teen.Titans.2016.BDRip.1.45.polkera\Justice.League.vs..Teen.Titans.2016.BDRip.1.45.polkera.avi
    Format : AVI
    Format/Info : Audio Video Interleave
    File size : 1.46 GiB
    Duration : 1h 19mn
    Overall bit rate : 2 638 Kbps
    Writing application : VirtualDubMod 1.5.10.3 | www.virtualdub-fr.org || (build 2550/release)
    Writing library : VirtualDubMod build 2550/release
    Video
    Format : MPEG-4 Visual
    Format profile : Streaming Video@L1
    Format settings, BVOP : Yes
    Format settings, QPel : No
    Format settings, GMC : No warppoints
    Format settings, Matrix : Custom
    Codec ID : XVID
    Codec ID/Hint : XviD
    Duration : 1h 19mn
    Bit rate : 1 728 Kbps
    Width : 704 pixels
    Height : 400 pixels
    Display aspect ratio : 16/9
    Frame rate : 23.976 fps
    Resolution : 24 bits
    Colorimetry : 4:2:0
    Scan type : Progressive
    Bits/(Pixel*Frame) : 0.256
    Stream size : 979 MiB (66%)
    Writing library : XviD 73
    Audio #1
    Format : AC-3
    Format/Info : Audio Coding 3
    Codec ID : 2000
    Duration : 1h 19mn
    Bit rate mode : Constant
    Bit rate : 448 Kbps
    Channel(s) : 6 channels
    Channel positions : Front: L C R, Surround: L R, LFE
    Sampling rate : 48.0 KHz
    Stream size : 254 MiB (17%)
    Alignment : Split accross interleaves
    Interleave, duration : 42 ms (1.00 video frame)
    Interleave, preload duration : 500 ms
    Audio #2
    Format : AC-3
    Format/Info : Audio Coding 3
    Codec ID : 2000
    Duration : 1h 19mn
    Bit rate mode : Constant
    Bit rate : 448 Kbps
    Channel(s) : 6 channels
    Channel positions : Front: L C R, Surround: L R, LFE
    Sampling rate : 48.0 KHz
    Stream size : 254 MiB (17%)
    Alignment : Split accross interleaves
    Interleave, duration : 42 ms (1.00 video frame)
    Interleave, preload duration : 500 ms

    -

    Скриншоты

    -
    |
    Скачать .torrent

    Скачать торрент-файл бесплатно и на максимальной скорости!

    Как скачивать? · Что такое торрент? · Рейтинг и ограничения

    !ВНИМАНИЕ!
    Сайт не распространяет и не хранит электронные версии произведений, а занимается лишь лишь предоставлением доступа к создаваемому пользователями каталогу ссылок на торрент-файлы, которые содержат только списки хеш-сумм, убедительная просьба с жалобами обращаться напрямую к пользователю. Файлы для обмена на трекере предоставлены пользователями сайта, и администрация не несёт ответственности за их содержание. Просьба не заливать файлы, защищенные авторскими правами, а также файлы нелегального содержания!


    _________________
    [Профиль] [ЛС]
    Показать сообщения:    
    Ответить на тему

    Текущее время: Сегодня, в 06:26

    Часовой пояс: GMT + 2



    Вы не можете начинать темы
    Вы не можете отвечать на сообщения
    Вы не можете редактировать свои сообщения
    Вы не можете удалять свои сообщения
    Вы не можете голосовать в опросах
    Вы не можете прикреплять файлы к сообщениям
    Вы не можете скачивать файлы