BitTorrentTracker PerecTracker.org
BitTorrentTracker PerecTracker.org
    
Регистрация  ·  Вход
 
 · 
Забыли пароль?

  • Экстрасенсы / Solace (Афонсо Пойарт / Afonso Poyart) [2015, США, триллер, драма, детектив, BDRip-AVC] Dub + Original + Sub (eng)

    Ответить на тему
     
    Автор Сообщение

    Light

    Создавать темы 14-Апр-2016 14:06

           

    [Цитировать]

    Экстрасенсы / Solace-Страна: США
    Жанр: триллер, драма, детектив
    Год выпуска: 2015
    Продолжительность: 01:41:12
    Перевод: Профессиональный (полное дублирование) (iTunes)
    Оригинальная аудиодорожка: английский
    Cубтитры: английские (полные, SDH)
    Навигация по главам: есть
    Режиссер: Афонсо Пойарт / Afonso Poyart
    В ролях: Энтони Хопкинс, Джеффри Дин Морган, Колин Фаррелл, Эбби Корниш, Марли Шелтон, Джанин Тёрнер, Ксандер Беркли, Кенни Джонсон, Хосе Пабло Кантилльо, Джошуа Клоуз
    Описание: Напарники, Джо и Кэтрин, детективы из ФБР расследуют череду загадочных убийств. Все преступления объединяет нечто сверхъестественное — серийный убийца всегда на шаг впереди лучших сыщиков. Тогда на помощь правосудию приходит отставной аналитик спецслужб доктор Джон Кленси. Его исключительная интуиция и интеллект могут помочь поймать убийцу, но вскоре Джон понимает — его соперник значительно превосходит его в способностях.

    Качество видео: BDRip-AVC (исходник - Blu-ray|SOLACE_BLUEBIRD)
    Формат видео: MKV
    Видео: x264, 1152x480 (2.40:1), 23,976 fps, ~2310 kbps, 0.174 bit/pixel
    Аудио 1: 48 kHz, AC3 Dolby Digital, 3/2 (L,C,R,l,r) + LFE ch, ~384 kbps [русский]
    Аудио 2: 48 kHz, AC3 Dolby Digital, 3/2 (L,C,R,l,r) + LFE ch, ~384 kbps [английский]
    Формат субтитров: softsub (SRT)
    MediaInfo | x264 log
    Format : Matroska
    Format version : Version 4 / Version 2
    File size : 2.17 GiB
    Duration : 1h 41mn
    Overall bit rate : 3 076 Kbps
    Movie name : Экстрасенсы / Solace (2015) :: AFM ::
    Encoded date : UTC 2016-04-14 06:16:02
    Writing application : mkvmerge v8.3.0 ('Over the Horizon') 32bit
    Writing library : libebml v1.3.1 + libmatroska v1.4.2
    Video
    ID : 1
    Format : AVC
    Format/Info : Advanced Video Codec
    Format profile : High@L4.1
    Format settings, CABAC : Yes
    Format settings, ReFrames : 11 frames
    Codec ID : V_MPEG4/ISO/AVC
    Duration : 1h 41mn
    Bit rate : 2 310 Kbps
    Width : 1 152 pixels
    Height : 480 pixels
    Display aspect ratio : 2.40:1
    Frame rate mode : Constant
    Frame rate : 23.976 fps
    Color space : YUV
    Chroma subsampling : 4:2:0
    Bit depth : 8 bits
    Scan type : Progressive
    Bits/(Pixel*Frame) : 0.174
    Stream size : 1.59 GiB (73%)
    Title : BDRip by AFM [RuTracker.org]
    Writing library : x264 core 148 r2665+53 6629127 t_mod_Custom [8-bit@all X86_64]
    Encoding settings : cabac=1 / ref=11 / deblock=1:-3:-2 / analyse=0x3:0x113 / me=umh / subme=10 / psy=1 / fade_compensate=0.00 / psy_rd=1.00:0.00 / mixed_ref=1 / me_range=32 / chroma_me=1 / trellis=2 / 8x8dct=1 / cqm=0 / deadzone=21,11 / fast_pskip=0 / chroma_qp_offset=-2 / threads=6 / lookahead_threads=1 / sliced_threads=0 / nr=0 / decimate=0 / interlaced=0 / bluray_compat=0 / constrained_intra=0 / fgo=0 / bframes=14 / b_pyramid=2 / b_adapt=2 / b_bias=0 / direct=3 / weightb=1 / open_gop=0 / weightp=2 / keyint=250 / keyint_min=23 / scenecut=40 / intra_refresh=0 / rc_lookahead=40 / rc=2pass / mbtree=0 / bitrate=2310 / ratetol=1.0 / qcomp=0.65 / qpmin=0:0:0 / qpmax=69:69:69 / qpstep=4 / cplxblur=20.0 / qblur=0.5 / vbv_maxrate=50000 / vbv_bufsize=62500 / nal_hrd=none / filler=0 / ip_ratio=1.35 / pb_ratio=1.30 / aq=3:0.80 / aq-sensitivity=10.00 / aq-factor=1.00:1.00:1.00 / aq2=0 / aq3=0
    Language : English
    Default : Yes
    Forced : No
    Audio #1
    ID : 2
    Format : AC-3
    Format/Info : Audio Coding 3
    Mode extension : CM (complete main)
    Format settings, Endianness : Big
    Codec ID : A_AC3
    Duration : 1h 41mn
    Bit rate mode : Constant
    Bit rate : 384 Kbps
    Channel(s) : 6 channels
    Channel positions : Front: L C R, Side: L R, LFE
    Sampling rate : 48.0 KHz
    Compression mode : Lossy
    Stream size : 278 MiB (12%)
    Title : Dub, AC3 5.1 ~384 kbps
    Language : Russian
    Default : Yes
    Forced : No
    Audio #2
    ID : 3
    Format : AC-3
    Format/Info : Audio Coding 3
    Mode extension : CM (complete main)
    Format settings, Endianness : Big
    Codec ID : A_AC3
    Duration : 1h 41mn
    Bit rate mode : Constant
    Bit rate : 384 Kbps
    Channel(s) : 6 channels
    Channel positions : Front: L C R, Side: L R, LFE
    Sampling rate : 48.0 KHz
    Compression mode : Lossy
    Stream size : 278 MiB (12%)
    Title : Original, AC3 5.1 ~384 kbps
    Language : English
    Default : No
    Forced : No
    Text #1
    ID : 4
    Format : UTF-8
    Codec ID : S_TEXT/UTF8
    Codec ID/Info : UTF-8 Plain Text
    Title : full
    Language : English
    Default : No
    Forced : No
    Text #2
    ID : 5
    Format : UTF-8
    Codec ID : S_TEXT/UTF8
    Codec ID/Info : UTF-8 Plain Text
    Title : SDH
    Language : English
    Default : No
    Forced : No
    Menu
    00:00:00.000 : Chapter 1
    00:09:13.428 : Chapter 2
    00:16:38.289 : Chapter 3
    00:20:26.475 : Chapter 4
    00:30:19.860 : Chapter 5
    00:39:57.562 : Chapter 6
    00:46:02.468 : Chapter 7
    01:00:26.748 : Chapter 8
    01:04:05.800 : Chapter 9
    01:11:37.126 : Chapter 10
    01:18:46.639 : Chapter 11
    01:22:42.541 : Chapter 12

    x264

    x264 [info]: frame I:1116 Avg QP:13.05 size: 70999
    x264 [info]: frame P:32372 Avg QP:16.20 size: 24876
    x264 [info]: frame B:112088 Avg QP:17.64 size: 7721
    x264 [info]: consecutive B-frames: 3.3% 3.9% 9.8% 13.2% 13.7% 39.4% 6.0% 1.3% 2.8% 0.9% 2.2% 0.8% 1.0% 0.5% 1.4%
    x264 [info]: mb I I16..4: 8.7% 77.8% 13.5%
    x264 [info]: mb P I16..4: 2.8% 16.1% 2.2% P16..4: 34.5% 25.4% 11.7% 0.0% 0.0% skip: 7.3%
    x264 [info]: mb B I16..4: 0.2% 0.8% 0.1% B16..8: 39.2% 12.4% 2.9% direct: 6.4% skip:38.0% L0:44.7% L1:45.7% BI: 9.6%
    x264 [info]: 8x8 transform intra:76.0% inter:61.6%
    x264 [info]: direct mvs spatial:98.0% temporal:2.0%
    x264 [info]: coded y,uvDC,uvAC intra: 78.8% 69.8% 47.0% inter: 26.0% 21.2% 7.1%
    x264 [info]: i16 v,h,dc,p: 33% 15% 9% 43%
    x264 [info]: i8 v,h,dc,ddl,ddr,vr,hd,vl,hu: 11% 11% 10% 9% 12% 12% 12% 11% 12%
    x264 [info]: i4 v,h,dc,ddl,ddr,vr,hd,vl,hu: 10% 12% 6% 10% 14% 12% 13% 10% 12%
    x264 [info]: i8c dc,h,v,p: 44% 27% 18% 11%
    x264 [info]: Weighted P-Frames: Y:97.6% UV:1.4%
    x264 [info]: ref P L0: 48.6% 9.8% 16.4% 6.6% 5.2% 3.7% 3.1% 1.9% 1.7% 1.4% 1.4% 0.2% 0.0%
    x264 [info]: ref B L0: 69.6% 12.7% 6.4% 3.4% 2.5% 2.0% 1.5% 1.0% 0.6% 0.3%
    x264 [info]: ref B L1: 91.7% 8.3%
    x264 [info]: kb/s:2305.68

    Скриншоты

    с названием

    Скачать .torrent

    Скачать торрент-файл бесплатно и на максимальной скорости!

    Как скачивать? · Что такое торрент? · Рейтинг и ограничения

    !ВНИМАНИЕ!
    Сайт не распространяет и не хранит электронные версии произведений, а занимается лишь лишь предоставлением доступа к создаваемому пользователями каталогу ссылок на торрент-файлы, которые содержат только списки хеш-сумм, убедительная просьба с жалобами обращаться напрямую к пользователю. Файлы для обмена на трекере предоставлены пользователями сайта, и администрация не несёт ответственности за их содержание. Просьба не заливать файлы, защищенные авторскими правами, а также файлы нелегального содержания!


    _________________
    [Профиль] [ЛС]
    Показать сообщения:    
    Ответить на тему

    Текущее время: Сегодня, в 04:09

    Часовой пояс: GMT + 2



    Вы не можете начинать темы
    Вы не можете отвечать на сообщения
    Вы не можете редактировать свои сообщения
    Вы не можете удалять свои сообщения
    Вы не можете голосовать в опросах
    Вы не можете прикреплять файлы к сообщениям
    Вы не можете скачивать файлы