BitTorrentTracker PerecTracker.org
BitTorrentTracker PerecTracker.org
    
Регистрация  ·  Вход
 
 · 
Забыли пароль?

  • Потерянная / Загадочная комната / Breakaway / Riddle room (Брайан Биндер / Bryan Binder) [2016, США, Триллер, DVDRip] DVO (DeadSno & Den904)

    Ответить на тему
     
    Автор Сообщение

    rechyn

    Создавать темы 14-Апр-2016 09:54

           

    [Цитировать]

    Потерянная / Загадочная комната / Breakaway / Riddle room
    Страна: США
    Жанр: Триллер
    Год выпуска: 2016
    Продолжительность: 01:20:28
    Перевод: Любительский (двухголосый закадровый) DeadSno & Den904 по переводу Den904
    Cубтитры: нет
    Режиссер: Брайан Биндер / Bryan Binder
    В ролях: Джо Кэйди, Питер Кэри, Барбара Эпштейн, Фил Гэйвел, Эрика Хоувленд, Тирен Джеймс, Ава Мэнсон, Мариса Штобер, Даниэль Юсадж, Дик Уорд
    Описание: Очнувшись в странной комнате, Эмили Бернс, ассистент профессора фармакологии, понимает, что полностью потеряла память о событиях, случившихся накануне. Недоумевая, как она попала в это место и кто ее пленители, она отчаянно пытается найти все кусочки паззла этой головоломки, потому что именно в памяти и есть ее спасение.
    Доп. информация: В переводе и озвучке нет мата!
    Сэмпл: http://multi-up.com/1097439
    Качество видео: DVDRip
    Формат видео: AVI
    Видео: XVID, 720x400, 1992 kbps, 23.976 fps
    Аудио: AC-3, 6 ch, 48 KHz, 384 kbps

    MediaInfo

    Format : AVI
    Format/Info : Audio Video Interleave
    File size : 1.34 GiB
    Duration : 1h 20mn
    Overall bit rate : 2 385 Kbps
    Writing application : VirtualDubMod 1.5.10.2 (build 2540/release)
    Writing library : VirtualDubMod build 2540/release
    Video
    ID : 0
    Format : MPEG-4 Visual
    Format profile : Advanced Simple@L5
    Format settings, BVOP : 2
    Format settings, QPel : No
    Format settings, GMC : No warppoints
    Format settings, Matrix : Default (H.263)
    Muxing mode : Packed bitstream
    Codec ID : XVID
    Codec ID/Hint : XviD
    Duration : 1h 20mn
    Bit rate : 1 992 Kbps
    Width : 720 pixels
    Height : 400 pixels
    Display aspect ratio : 16:9
    Frame rate : 23.976 fps
    Color space : YUV
    Chroma subsampling : 4:2:0
    Bit depth : 8 bits
    Scan type : Progressive
    Compression mode : Lossy
    Bits/(Pixel*Frame) : 0.288
    Stream size : 1.12 GiB (84%)
    Writing library : XviD 66
    Audio
    ID : 1
    Format : AC-3
    Format/Info : Audio Coding 3
    Mode extension : CM (complete main)
    Format settings, Endianness : Big
    Codec ID : 2000
    Duration : 1h 20mn
    Bit rate mode : Constant
    Bit rate : 384 Kbps
    Channel(s) : 6 channels
    Channel positions : Front: L C R, Side: L R, LFE
    Sampling rate : 48.0 KHz
    Bit depth : 16 bits
    Compression mode : Lossy
    Stream size : 221 MiB (16%)
    Alignment : Split accross interleaves
    Interleave, duration : 42 ms (1.00 video frame)
    Interleave, preload duratio : 500 ms

    Скриншот c названием фильма

    Скриншоты



    Скачать .torrent

    Скачать торрент-файл бесплатно и на максимальной скорости!

    Как скачивать? · Что такое торрент? · Рейтинг и ограничения

    !ВНИМАНИЕ!
    Сайт не распространяет и не хранит электронные версии произведений, а занимается лишь лишь предоставлением доступа к создаваемому пользователями каталогу ссылок на торрент-файлы, которые содержат только списки хеш-сумм, убедительная просьба с жалобами обращаться напрямую к пользователю. Файлы для обмена на трекере предоставлены пользователями сайта, и администрация не несёт ответственности за их содержание. Просьба не заливать файлы, защищенные авторскими правами, а также файлы нелегального содержания!


    _________________
    [Профиль] [ЛС]
    Показать сообщения:    
    Ответить на тему

    Текущее время: Сегодня, в 06:07

    Часовой пояс: GMT + 2



    Вы не можете начинать темы
    Вы не можете отвечать на сообщения
    Вы не можете редактировать свои сообщения
    Вы не можете удалять свои сообщения
    Вы не можете голосовать в опросах
    Вы не можете прикреплять файлы к сообщениям
    Вы не можете скачивать файлы