BitTorrentTracker PerecTracker.org
BitTorrentTracker PerecTracker.org
    
Регистрация  ·  Вход
 
 · 
Забыли пароль?

  • Лига Справедливости против Юных Титанов / Justice League vs. Teen Titans (Сэм Лью / Sam Liu) [2016, США, мультфильм, боевик, фантастика, фэнтези, BDRip] MVO

    Ответить на тему
     
    Автор Сообщение

    Flirldrerve

    Создавать темы 14-Апр-2016 01:27

           

    [Цитировать]

    Лига Справедливости против Юных Титанов / Justice League vs. Teen Titans--Страна: США
    Жанр: Мультфильм, боевик, фантастика, фэнтези
    Продолжительность: 01:19:10
    Год выпуска: 2016
    -Перевод: Любительский (многоголосый, закадровый) | Saint Sound
    Субтитры: нет
    Режиссёр: Сэм Лью / Sam Liu
    -В ролях:
    Розарио Доусон, Кристофер Горам, Шемар Мур, Джерри О’Коннелл, Джейсон О’Мара, Стюарт Аллан, Джейк Т. Остин, Таисса Фармига, Шон Маэр, Брэндон Су Ху
    -Описание:
    Хитроумному демону Тригону удалось завладеть разумом отважных членов Лиги. И подвластные ему супергерои сами начали бесчинствовать. Кроме юных титанов, успевших немного поучиться от старших соратников, встать на защиту порядка некому. В неравном бою придется столкнуться матерым и опытным бойцам со злом, невольно перешедшим на сторону противника, и начинающим заступникам человечества. Впереди их ожидает зрелищная битва, кто окажется победителем, предугадать невозможно!
    -Релиз групп All Films и RG Torrents.ru-Сэмпл: https://www.sendspace.com/file/ngxhkh-Качество: BDRip - Исходник (Спасибо -Azureus-)
    Формат: AVI
    Видео: 688x384 (1.79:1), 23.976 fps, XviD build 73 ~1174 kbps avg, 0.19 bit/pixel
    Аудио: 48 kHz, MPEG Layer 3, 2 ch, ~128.00 kbps avg
    -

    Отчёт MediaInfo

    General
    Complete name : C:\Users\Максим\Desktop\Мои релизы\Justice.League.vs..Teen.Titans.2016.BDRip.polkera.avi
    Format : AVI
    Format/Info : Audio Video Interleave
    File size : 743 MiB
    Duration : 1h 19mn
    Overall bit rate : 1 312 Kbps
    Writing application : VirtualDubMod 1.5.10.3 | www.virtualdub-fr.org || (build 2550/release)
    Writing library : VirtualDubMod build 2550/release
    Video
    Format : MPEG-4 Visual
    Format profile : Streaming Video@L1
    Format settings, BVOP : Yes
    Format settings, QPel : No
    Format settings, GMC : No warppoints
    Format settings, Matrix : Custom
    Codec ID : XVID
    Codec ID/Hint : XviD
    Duration : 1h 19mn
    Bit rate : 1 174 Kbps
    Width : 688 pixels
    Height : 384 pixels
    Display aspect ratio : 16/9
    Frame rate : 23.976 fps
    Resolution : 24 bits
    Colorimetry : 4:2:0
    Scan type : Progressive
    Bits/(Pixel*Frame) : 0.185
    Stream size : 665 MiB (90%)
    Writing library : XviD 73
    Audio
    Format : MPEG Audio
    Format version : Version 1
    Format profile : Layer 3
    Codec ID : 55
    Codec ID/Hint : MP3
    Duration : 1h 19mn
    Bit rate mode : Constant
    Bit rate : 128 Kbps
    Channel(s) : 2 channels
    Sampling rate : 48.0 KHz
    Resolution : 16 bits
    Stream size : 72.5 MiB (10%)
    Alignment : Aligned on interleaves
    Interleave, duration : 42 ms (1.00 video frame)
    Interleave, preload duration : 504 ms
    Writing library : LAME3.99r
    Encoding settings : -m s -V 4 -q 2 -lowpass 17 -b 128

    -

    Скриншоты

    -
    |
    Скачать .torrent

    Скачать торрент-файл бесплатно и на максимальной скорости!

    Как скачивать? · Что такое торрент? · Рейтинг и ограничения

    !ВНИМАНИЕ!
    Сайт не распространяет и не хранит электронные версии произведений, а занимается лишь лишь предоставлением доступа к создаваемому пользователями каталогу ссылок на торрент-файлы, которые содержат только списки хеш-сумм, убедительная просьба с жалобами обращаться напрямую к пользователю. Файлы для обмена на трекере предоставлены пользователями сайта, и администрация не несёт ответственности за их содержание. Просьба не заливать файлы, защищенные авторскими правами, а также файлы нелегального содержания!


    _________________
    [Профиль] [ЛС]
    Показать сообщения:    
    Ответить на тему

    Текущее время: Сегодня, в 00:30

    Часовой пояс: GMT + 2



    Вы не можете начинать темы
    Вы не можете отвечать на сообщения
    Вы не можете редактировать свои сообщения
    Вы не можете удалять свои сообщения
    Вы не можете голосовать в опросах
    Вы не можете прикреплять файлы к сообщениям
    Вы не можете скачивать файлы