BitTorrentTracker PerecTracker.org
BitTorrentTracker PerecTracker.org
    
Регистрация  ·  Вход
 
 · 
Забыли пароль?

  • Призраки: Лучшая участь / Spooks: The Greater Good (Бхарат Наллури / Bharat Nalluri) [2015, Великобритания, Триллер, драма, HDRip] MVO [GreenРай Studio]

    Ответить на тему
     
    Автор Сообщение

    Light

    Создавать темы 14-Апр-2016 01:27

           

    [Цитировать]

    Призраки: Лучшая участь / Spooks: The Greater Goo«Loyalty is treason»Страна: Великобритания
    Жанр: Триллер, драма
    Год выпуска: 2015
    Продолжительность: 01:43:47
    Перевод: Любительский (многоголосый закадровый) [GreenРай Studio]
    Cубтитры: нет
    Оригинальная аудиодорожка: нет
    Режиссер: Бхарат Наллури / Bharat Nalluri
    В ролях: Кит Харингтон, Таппенс Мидлтон, Лара Пулвер, Дэвид Хэрвуд, Элиес Габел, Дженнифер Или, Питер Фёрт, Элинор Мацуура, Тим МакИннерни, Оливер Гилберт
    Описание: Стало достоверно известно, что на Лондон готовится крупная террористическая акция, все в страхе, полисмены города подняты по тревоге на поимку организаторов. И вот преступник схвачен, однако во время передачи его между полицейскими структурами, террорист совершает дерзкий побег. Это означает, что все повторяется заново, вновь жители британской столицы под угрозой. Детектив Уилл Холлоуэй обращается за помощью к шефу ведомства английской контрразведки, чтобы попытаться предотвратить неминуемый теракт.
    Группа
    желает всем приятного просмотра!Качество видео: HDRip / BDRip (1080p)
    Формат видео: AVI
    Видео: 720x304 (2.37:1), 24.000 fps, XviD build 65 ~1657 kbps avg, 0.32 bit/pixel
    Аудио #1: 48 kHz, AC3 Dolby Digital, 3/2 (L,C,R,l,r) + LFE ch, ~384 kbps
    MediaInfo
    General
    Complete name : C:\Users\Никита\Desktop\кино.avi
    Format : AVI
    Format/Info : Audio Video Interleave
    File size : 1.49 GiB
    Duration : 1h 43mn
    Overall bit rate : 2 051 Kbps
    Writing application : VirtualDubMod 1.5.10.2 (build 2540/release)
    Writing library : VirtualDubMod build 2540/release
    Video
    ID : 0
    Format : MPEG-4 Visual
    Format profile : Advanced Simple@L5
    Format settings, BVOP : 2
    Format settings, QPel : No
    Format settings, GMC : No warppoints
    Format settings, Matrix : Custom
    Codec ID : XVID
    Codec ID/Hint : XviD
    Duration : 1h 43mn
    Bit rate : 1 658 Kbps
    Width : 720 pixels
    Height : 304 pixels
    Display aspect ratio : 2.35:1
    Frame rate : 24.000 fps
    Color space : YUV
    Chroma subsampling : 4:2:0
    Bit depth : 8 bits
    Scan type : Progressive
    Compression mode : Lossy
    Bits/(Pixel*Frame) : 0.316
    Stream size : 1.20 GiB (81%)
    Writing library : XviD 65
    Audio
    ID : 1
    Format : AC-3
    Format/Info : Audio Coding 3
    Mode extension : CM (complete main)
    Format settings, Endianness : Big
    Codec ID : 2000
    Duration : 1h 43mn
    Bit rate mode : Constant
    Bit rate : 384 Kbps
    Channel(s) : 6 channels
    Channel positions : Front: L C R, Side: L R, LFE
    Sampling rate : 48.0 KHz
    Frame rate : 31.250 fps (1536 spf)
    Compression mode : Lossy
    Stream size : 285 MiB (19%)
    Alignment : Split accross interleaves
    Interleave, duration : 42 ms (1.00 video frame)
    Interleave, preload duratio : 500 ms
    Скриншоты
    Скачать .torrent

    Скачать торрент-файл бесплатно и на максимальной скорости!

    Как скачивать? · Что такое торрент? · Рейтинг и ограничения

    !ВНИМАНИЕ!
    Сайт не распространяет и не хранит электронные версии произведений, а занимается лишь лишь предоставлением доступа к создаваемому пользователями каталогу ссылок на торрент-файлы, которые содержат только списки хеш-сумм, убедительная просьба с жалобами обращаться напрямую к пользователю. Файлы для обмена на трекере предоставлены пользователями сайта, и администрация не несёт ответственности за их содержание. Просьба не заливать файлы, защищенные авторскими правами, а также файлы нелегального содержания!


    _________________
    [Профиль] [ЛС]
    Показать сообщения:    
    Ответить на тему

    Текущее время: Сегодня, в 01:49

    Часовой пояс: GMT + 2



    Вы не можете начинать темы
    Вы не можете отвечать на сообщения
    Вы не можете редактировать свои сообщения
    Вы не можете удалять свои сообщения
    Вы не можете голосовать в опросах
    Вы не можете прикреплять файлы к сообщениям
    Вы не можете скачивать файлы