BitTorrentTracker PerecTracker.org
BitTorrentTracker PerecTracker.org
    
Регистрация  ·  Вход
 
 · 
Забыли пароль?

  • Домашняя жизнь / La vie domestique (Изабель Чайка / Isabelle Czajka) [2013, Франция, драма, экранизация, DVB] Original (Fre) + Sub (Rus, Eng, Fre, Deu)

    Ответить на тему
     
    Автор Сообщение

    Light

    Создавать темы 13-Апр-2016 21:15

           

    [Цитировать]

    Домашняя жизнь
    La vie domestique-Страна: Франция
    Жанр: драма, экранизация
    Год выпуска: 2013
    Продолжительность: 01:33:15
    Перевод: Субтитры (перевод О.Першиной, Éclair Media)
    Cубтитры: русские, английские, французские, немецкие, румынские
    Оригинальная аудиодорожка: французский
    Режиссер: Изабель Чайка / Isabelle CzajkaВ ролях: Эммануэль Дево / Emmanuelle Devos (Juliette), Жюли Ферье / Julie Ferrier (Betty), Наташа Ренье / Natacha Regnier (Marianne), Элена Ногуэрра / Helena Noguerra (Ines), Лоран Пуатрено / Laurent Poitrenaux (Thomas), Микаэль Абитбуль / Michael Abiteboul (Gregory), Лоран Капеллуто / Laurent Capelluto (Mathieu)
    Описание: по роману канадской писательницы Рейчел Каск / Rachel Cusk "Арлингтон парк / Arlington Park" (2007), получившему престижную британскую литературную премию Orange Prize for Fiction, присуждаемую ежегодно лучшей женщине-романисту за роман на английском языке.
    Джульетта — не просто любящая жена и мать двоих детей, но и успешная деловая женщина, для которой ее работа очень много значит. Но вот переезд в отдаленный пригород Парижа ставит перед главной героиней одну непростую дилемму: уделять любимой работе больше времени или превратится в домохозяйку, как большинство женщин из этого пригорода.
    Доп. информация: Hot Bird (13.0°E) TV5MONDE Europe DVB-S
    Участник: La Rochelle International Film Festival 2013; Festival du Film Francophone d'Angouleme 2013; Montreal World Film Festival 2013; Sarasota Film Festival 2014; Denver International Film Festival 2014.

    Качество видео: DVB
    Формат видео: TS
    Видео: MPEG Video 2, 720x576@1024x576 (16:9), 25 fps, ~3240 kbps avg, 0.313 bit/pixel
    Аудио: MPEG Audio 2, 2 ch, 48 kHz, 192 kbps - французский
    Формат субтитров: PGS

    MediaInfo

    GeneralID : 1 (0x1)Complete name : [apreder]La_vie_domestique(2013)DVB.tsFormat : MPEG-TSFile size : 2.35 GiBDuration : 1h 33mnOverall bit rate mode : VariableOverall bit rate : 3 613 KbpsMaximum Overall bit rate : 35.5 Mbps
    VideoID : 4113 (0x1011)Menu ID : 1 (0x1)Format : MPEG VideoFormat version : Version 2Format profile : Main@MainFormat settings, BVOP : YesFormat settings, Matrix : CustomFormat settings, GOP : VariableFormat settings, picture structure : FrameCodec ID : 2Duration : 1h 33mnBit rate mode : VariableBit rate : 3 240 KbpsWidth : 720 pixelsHeight : 576 pixelsDisplay aspect ratio : 16:9Frame rate : 25.000 fpsStandard : PALColor space : YUVChroma subsampling : 4:2:0Bit depth : 8 bitsScan type : InterlacedScan order : Top Field FirstCompression mode : LossyBits/(Pixel*Frame) : 0.313Time code of first frame : 00:00:00:00Time code source : Group of pictures headerGOP, Open/Closed : OpenGOP, Open/Closed of first frame : ClosedStream size : 2.11 GiB (90%)
    AudioID : 4352 (0x1100)Menu ID : 1 (0x1)Format : MPEG AudioFormat version : Version 1Format profile : Layer 2Codec ID : 4Duration : 1h 33mnBit rate mode : ConstantBit rate : 192 KbpsChannel(s) : 2 channelsSampling rate : 48.0 KHzCompression mode : LossyStream size : 128 MiB (5%)Language : French
    Text #1ID : 4608 (0x1200)Menu ID : 1 (0x1)Format : PGSCodec ID : 144Delay relative to video : 22s 240msLanguage : Russian
    Text #2ID : 4609 (0x1201)Menu ID : 1 (0x1)Format : PGSCodec ID : 144Duration : 1h 32mnDelay relative to video : 22s 240msLanguage : English
    Text #3ID : 4610 (0x1202)Menu ID : 1 (0x1)Format : PGSCodec ID : 144Delay relative to video : 22s 240msLanguage : French
    Text #4ID : 4611 (0x1203)Menu ID : 1 (0x1)Format : PGSCodec ID : 144Delay relative to video : 22s 240msLanguage : German
    Text #5ID : 4612 (0x1204)Menu ID : 1 (0x1)Format : PGSCodec ID : 144Language : Romanian

    Скриншот c названием фильма

    Скриншоты

    Резервные скриншоты


    -[3'032]
    Скачать .torrent

    Скачать торрент-файл бесплатно и на максимальной скорости!

    Как скачивать? · Что такое торрент? · Рейтинг и ограничения

    !ВНИМАНИЕ!
    Сайт не распространяет и не хранит электронные версии произведений, а занимается лишь лишь предоставлением доступа к создаваемому пользователями каталогу ссылок на торрент-файлы, которые содержат только списки хеш-сумм, убедительная просьба с жалобами обращаться напрямую к пользователю. Файлы для обмена на трекере предоставлены пользователями сайта, и администрация не несёт ответственности за их содержание. Просьба не заливать файлы, защищенные авторскими правами, а также файлы нелегального содержания!


    _________________
    [Профиль] [ЛС]
    Показать сообщения:    
    Ответить на тему

    Текущее время: Сегодня, в 04:22

    Часовой пояс: GMT + 2



    Вы не можете начинать темы
    Вы не можете отвечать на сообщения
    Вы не можете редактировать свои сообщения
    Вы не можете удалять свои сообщения
    Вы не можете голосовать в опросах
    Вы не можете прикреплять файлы к сообщениям
    Вы не можете скачивать файлы