BitTorrentTracker PerecTracker.org
BitTorrentTracker PerecTracker.org
    
Регистрация  ·  Вход
 
 · 
Забыли пароль?

  • Миллиарды / Billions / Сезон: 1 / Серии: 1-12 из 12 (Джеймс Фоули, Нил Бёргер) [2016, драма, HDTVRip 720p] MVO (Студия Jaskier) + Original

    Ответить на тему
     
    Автор Сообщение

    rechyn

    Создавать темы 13-Апр-2016 20:13

           

    [Цитировать]

    Миллиарды | Billions-Оригинальное название: Billions
    Русское название: Миллиарды
    Год выпуска: 2016
    Страна: США
    Жанр: драма
    Продолжительность: ~60 минут (серия)-Перевод: Профессиональный (многоголосый закадровый) Студия Jaskier-Режиссёр: Джеймс Фоули, Нил Бёргер-В ролях: Дэмиэн Льюис, Пол Джаматти, Мэгги Сифф, Малин Акерман, Тоби Леонард Мур, Дэвид Костабайл, Дэниэл К. Исаак, Фрэнк Хартс и др.-Описание: В мире много телесериалов, которые рассказывают о богатеях. А вы когда - нибудь смотрели сериал об их противостоянии. О конфликте двух довольно известных личностях расскажет телесериал «Миллиардеры». Этот фильм снят по сценарию Дэвида Левина и Брайна Коппельмана. Именно они написали сценарий к таким известным фильмам, как «13 друзей Оушена», «Шулера», «Девушка по вызову». Сюжет очень необычен. Здесь столкнутся интересы двух влиятельных людей. Один - юрист Чак Роадса. Он прокурор, известный своей принципиальностью. А второй Бобби Аксельрод – финансист. Он король среди себе подобных. Риск для него обычное дело, да и удача ему всегда улыбается.-Сэмпл-Качество: HDTVRip 720p
    Формат: MKV
    Видео кодек: h.264
    Аудио кодек: AC3
    Видео: AVC, 1280x720 (16:9), 23.976 fps, ~3000 kbps, 0.121 bit/pixel-Аудио 1: Dolby AC3, 48 kHz, stereo, 192 kbps Русский
    Аудио 2: Dolby AC3, 48 kHz, 6 ch, 384 kbps Оригинал (Английский)
    Субтитры: Нет-

    MediaInfo

    General
    Unique ID                   : 235687442176770831480934385288483447687 (0xB14FC00FC1B59632BA86E735EA482387)
    Complete name               : Z:\HD\Billions. 1 season (HDTVRip l 720p l Jaskier)\Billions.S01E01.720p.HDTV.x264-JASKiER.mkv
    Format                      : Matroska
    Format version              : Version 1
    File size                   : 1.37 GiB
    Duration                    : 59mn 13s
    Overall bit rate            : 3 315 Kbps
    Encoded date                : UTC 2016-01-12 23:01:11
    Writing application         : mkvmerge v2.3.0 ('Freak U') built on Sep  8 2008 18:32:16
    Writing library             : libebml v0.7.7 + libmatroska v0.8.1
    Video
    ID                          : 1
    Format                      : AVC
    Format/Info                 : Advanced Video Codec
    Format profile              : High@L4.1
    Format settings, CABAC      : Yes
    Format settings, ReFrames   : 5 frames
    Codec ID                    : V_MPEG4/ISO/AVC
    Duration                    : 59mn 13s
    Bit rate                    : 2 673 Kbps
    Width                       : 1 280 pixels
    Height                      : 720 pixels
    Display aspect ratio        : 16:9
    Frame rate mode             : Constant
    Frame rate                  : 23.976 fps
    Color space                 : YUV
    Chroma subsampling          : 4:2:0
    Bit depth                   : 8 bits
    Scan type                   : Progressive
    Bits/(Pixel*Frame)          : 0.121
    Stream size                 : 1.11 GiB (81%)
    Writing library             : x264 core 148 r2638 7599210
    Encoding settings           : cabac=1 / ref=5 / deblock=1:0:0 / analyse=0x3:0x113 / me=umh / subme=8 / psy=1 / psy_rd=1.00:0.00 / mixed_ref=1 / me_range=16 / chroma_me=1 / trellis=1 / 8x8dct=1 / cqm=0 / deadzone=21,11 / fast_pskip=1 / chroma_qp_offset=-2 / threads=22 / lookahead_threads=3 / sliced_threads=0 / nr=0 / decimate=1 / interlaced=0 / bluray_compat=0 / constrained_intra=0 / bframes=3 / b_pyramid=2 / b_adapt=2 / b_bias=0 / direct=3 / weightb=1 / open_gop=0 / weightp=2 / keyint=250 / keyint_min=23 / scenecut=40 / intra_refresh=0 / rc_lookahead=50 / rc=crf / mbtree=1 / crf=18.0 / qcomp=0.60 / qpmin=0 / qpmax=69 / qpstep=4 / ip_ratio=1.40 / aq=1:1.00
    Language                    : English
    Default                     : Yes
    Forced                      : No
    Color range                 : Limited
    Matrix coefficients         : BT.709
    Audio #1
    ID                          : 2
    Format                      : AC-3
    Format/Info                 : Audio Coding 3
    Mode extension              : CM (complete main)
    Format settings, Endianness : Big
    Codec ID                    : A_AC3
    Duration                    : 59mn 13s
    Bit rate mode               : Constant
    Bit rate                    : 192 Kbps
    Channel(s)                  : 2 channels
    Channel positions           : Front: L R
    Sampling rate               : 48.0 KHz
    Compression mode            : Lossy
    Stream size                 : 81.3 MiB (6%)
    Language                    : Russian
    Default                     : Yes
    Forced                      : No
    Audio #2
    ID                          : 3
    Format                      : AC-3
    Format/Info                 : Audio Coding 3
    Mode extension              : CM (complete main)
    Format settings, Endianness : Big
    Codec ID                    : A_AC3
    Duration                    : 59mn 13s
    Bit rate mode               : Constant
    Bit rate                    : 384 Kbps
    Channel(s)                  : 6 channels
    Channel positions           : Front: L C R, Side: L R, LFE
    Sampling rate               : 48.0 KHz
    Compression mode            : Lossy
    Stream size                 : 163 MiB (12%)
    Language                    : English
    Default                     : No
    Forced                      : No

    Скриншоты



    Ссылка на предыдущие и альтернативные раздачи

    http://perectracker.org/http://perectracker.org/tracker.php?nm=billions%202016
    Скачать .torrent

    Скачать торрент-файл бесплатно и на максимальной скорости!

    Как скачивать? · Что такое торрент? · Рейтинг и ограничения

    !ВНИМАНИЕ!
    Сайт не распространяет и не хранит электронные версии произведений, а занимается лишь лишь предоставлением доступа к создаваемому пользователями каталогу ссылок на торрент-файлы, которые содержат только списки хеш-сумм, убедительная просьба с жалобами обращаться напрямую к пользователю. Файлы для обмена на трекере предоставлены пользователями сайта, и администрация не несёт ответственности за их содержание. Просьба не заливать файлы, защищенные авторскими правами, а также файлы нелегального содержания!


    _________________
    [Профиль] [ЛС]
    Показать сообщения:    
    Ответить на тему

    Текущее время: Сегодня, в 16:47

    Часовой пояс: GMT + 2



    Вы не можете начинать темы
    Вы не можете отвечать на сообщения
    Вы не можете редактировать свои сообщения
    Вы не можете удалять свои сообщения
    Вы не можете голосовать в опросах
    Вы не можете прикреплять файлы к сообщениям
    Вы не можете скачивать файлы