BitTorrentTracker PerecTracker.org
BitTorrentTracker PerecTracker.org
    
Регистрация  ·  Вход
 
 · 
Забыли пароль?

  • Девушка на фотографиях / The Girl in the Photographs (Ник Саймон / Nick Simon) [2015, США, Канада, ужасы, триллер, криминал, WEB-DLRip] DVO (Paravoz Production) + Sub Eng + Original Eng

    Ответить на тему
     
    Автор Сообщение

    Light

    Создавать темы 13-Апр-2016 17:03

           

    [Цитировать]

    Девушка на фотографиях / The Girl in the Photographs
    Страна: США, Канада
    Жанр: ужасы, триллер, криминал
    Год выпуска: 2015
    Продолжительность: 01:38:15-Перевод: Любительский (двухголосный закадровый) Paravoz Production
    Cубтитры: английские
    Оригинальная аудиодорожка: английский-Режиссер: Ник Саймон / Nick Simon-В ролях: Митч Пилледжи, Кэтрин Изабель, Кэл Пенн, Кристи Карлсон Романо, Кенни Вормолд, Миранда Рэй Майо, Клаудия Ли, Эва Борн, Тоби Хемингуэй, Тоби Левинс-Описание: Скучающая молодая женщина из сонного городка Спирфиш получает фотографии, на которых запечатлены тела зверски убитых женщин. Являются ли они реальными, или это просто подделка? Отправителем может оказаться либо серийный убийца, либо урод с больным чувством юмора.-Доп. информация: присутствует навигация по главам-Сэмпл: http://sendfile.su/1223896-Качество видео: WEB-DLRip
    Качество:HDRip (исходник: WEB-DL/720p)
    Формат видео: MKV
    Видео: x264, 1120x464, 2,40:1, 23,976 (24000/1001), 2440 Kbps
    Аудио: AC-3, 48.0 KHz, 192 Kbps, 2 channels Front: L R | русский
    Аудио 2: AC-3, 48.0 KHz, 384 Kbps, 5.1 | оригинал английский
    Формат субтитров: softsub (SRT)

    MediaInfo

    Формат : Matroska
    Версия формата : Version 2
    Размер файла : 2,07 Гбайт
    Продолжительность : 1 ч. 38 м.
    Общий поток : 3016 Кбит/сек
    Дата кодирования : UTC 2005-01-02 05:01:29
    Программа кодирования : mkvmerge v7.6.0 ('Garden of Dreams') 32bit built on Feb 11 2015 00:18:47
    Библиотека кодирования : libebml v1.3.1 + libmatroska v1.4.2
    Видео
    Идентификатор : 1
    Формат : AVC
    Формат/Информация : Advanced Video Codec
    Профиль формата : High@L4.1
    Параметр CABAC формата : Да
    Параметр ReFrames формата : 9 кадров
    Идентификатор кодека : V_MPEG4/ISO/AVC
    Продолжительность : 1 ч. 38 м.
    Битрейт : 2440 Кбит/сек
    Ширина : 1120 пикселей
    Высота : 464 пикселя
    Соотношение сторон : 2,40:1
    Режим частоты кадров : Постоянный
    Частота кадров : 23,976 (24000/1001) кадра/сек
    Цветовое пространство : YUV
    Субдискретизация насыщенности : 4:2:0
    Битовая глубина : 8 бит
    Тип развёртки : Прогрессивная
    Бит/(Пиксели*Кадры) : 0.196
    Размер потока : 1,63 Гбайт (79%)
    Библиотека кодирования : x264 core 148 r2638 7599210
    Настройки программы : cabac=1 / ref=9 / deblock=1:-1:-1 / analyse=0x3:0x113 / me=umh / subme=9 / psy=1 / psy_rd=1.00:0.00 / mixed_ref=1 / me_range=28 / chroma_me=1 / trellis=2 / 8x8dct=1 / cqm=0 / deadzone=21,11 / fast_pskip=0 / chroma_qp_offset=-2 / threads=12 / lookahead_threads=2 / sliced_threads=0 / nr=0 / decimate=1 / interlaced=0 / bluray_compat=0 / constrained_intra=0 / bframes=9 / b_pyramid=2 / b_adapt=2 / b_bias=0 / direct=3 / weightb=1 / open_gop=0 / weightp=2 / keyint=240 / keyint_min=23 / scenecut=40 / intra_refresh=0 / rc_lookahead=40 / rc=2pass / mbtree=0 / bitrate=2440 / ratetol=1.0 / qcomp=0.60 / qpmin=0 / qpmax=69 / qpstep=4 / cplxblur=20.0 / qblur=0.5 / vbv_maxrate=62500 / vbv_bufsize=78125 / nal_hrd=none / filler=0 / ip_ratio=1.40 / pb_ratio=1.30 / aq=2:1.00
    Default : Да
    Forced : Нет
    Цветовой диапазон : Limited
    Основные цвета : BT.709
    Характеристики трансфера : BT.709
    Коэффициенты матрицы : BT.709
    Statistics Tags Issue : mkvmerge v8.5.2 ('Crosses') 32bit 2005-01-02 04:33:18 / mkvmerge v7.6.0 ('Garden of Dreams') 32bit built on Feb 11 2015 00:18:47 2005-01-02 05:01:29
    FromStats_BitRate : 2438481
    FromStats_Duration : 01:38:14.931000000
    FromStats_FrameCount : 141337
    FromStats_StreamSize : 1796834684
    Аудио #1
    Идентификатор : 2
    Формат : AC-3
    Формат/Информация : Audio Coding 3
    Расширение режима : CM (complete main)
    Параметр Endianness формата : Big
    Идентификатор кодека : A_AC3
    Продолжительность : 1 ч. 38 м.
    Вид битрейта : Постоянный
    Битрейт : 192 Кбит/сек
    Каналы : 2 канала
    Расположение каналов : Front: L R
    Частота : 48,0 КГц
    Частота кадров : 31,250 кадров/сек (1536 spf)
    Метод сжатия : С потерями
    Размер потока : 135 Мбайт (6%)
    Заголовок : русский
    Язык : Russian
    Default : Да
    Forced : Нет
    Аудио #2
    Идентификатор : 3
    Формат : AC-3
    Формат/Информация : Audio Coding 3
    Расширение режима : CM (complete main)
    Параметр Endianness формата : Big
    Идентификатор кодека : A_AC3
    Продолжительность : 1 ч. 38 м.
    Вид битрейта : Постоянный
    Битрейт : 384 Кбит/сек
    Каналы : 6 каналов
    Расположение каналов : Front: L C R, Side: L R, LFE
    Частота : 48,0 КГц
    Частота кадров : 31,250 кадров/сек (1536 spf)
    Метод сжатия : С потерями
    Размер потока : 270 Мбайт (13%)
    Заголовок : оригинал
    Язык : English
    Default : Нет
    Forced : Нет
    Текст
    Идентификатор : 4
    Формат : UTF-8
    Идентификатор кодека : S_TEXT/UTF8
    Идентификатор кодека/Информация : UTF-8 Plain Text
    Заголовок : английские
    Язык : English
    Default : Нет
    Forced : Нет
    Меню
    00:00:00.000 : en:Opening Sequence
    00:05:24.000 : en:A Graphic Depiction
    00:11:54.000 : en:A Nod To Me
    00:17:52.000 : en:Our Fascination With Death
    00:24:06.000 : en:The Local Scene
    00:29:58.000 : en:A Bad Picture
    00:35:51.000 : en:A Party Tonight
    00:42:18.000 : en:Petty Resentment
    00:48:15.000 : en:Pretty Townie Chick
    00:55:44.000 : en:A Much Better Option
    01:02:09.000 : en:I'm Leaving Town
    01:07:51.000 : en:I Look Pissed
    01:13:56.000 : en:I Wanted To Talk
    01:19:47.000 : en:Great Pictures
    01:24:10.000 : en:Your Big Moment
    01:32:43.000 : en:End Credits

    Скриншот c названием фильма

    Скриншоты






    Скачать .torrent

    Скачать торрент-файл бесплатно и на максимальной скорости!

    Как скачивать? · Что такое торрент? · Рейтинг и ограничения

    !ВНИМАНИЕ!
    Сайт не распространяет и не хранит электронные версии произведений, а занимается лишь лишь предоставлением доступа к создаваемому пользователями каталогу ссылок на торрент-файлы, которые содержат только списки хеш-сумм, убедительная просьба с жалобами обращаться напрямую к пользователю. Файлы для обмена на трекере предоставлены пользователями сайта, и администрация не несёт ответственности за их содержание. Просьба не заливать файлы, защищенные авторскими правами, а также файлы нелегального содержания!


    _________________
    [Профиль] [ЛС]
    Показать сообщения:    
    Ответить на тему

    Текущее время: Сегодня, в 22:04

    Часовой пояс: GMT + 2



    Вы не можете начинать темы
    Вы не можете отвечать на сообщения
    Вы не можете редактировать свои сообщения
    Вы не можете удалять свои сообщения
    Вы не можете голосовать в опросах
    Вы не можете прикреплять файлы к сообщениям
    Вы не можете скачивать файлы