BitTorrentTracker PerecTracker.org
BitTorrentTracker PerecTracker.org
    
Регистрация  ·  Вход
 
 · 
Забыли пароль?

  • Любимчики в поисках радуги / The Happets in the Rainbow Forest / La Tropa de Trapo en la selva del arcoiris (Алекс Кольс / Alex Colls) [2014 г., Испания, мультфильм, детский, семейный, HDRip] MVO

    Ответить на тему
     
    Автор Сообщение

    Flirldrerve

    Создавать темы 13-Апр-2016 12:51

           

    [Цитировать]

    Любимчики в поисках радуги / The Happets in the Rainbow Forest--Страна: Испания
    Жанр: Мультфильм, детский, семейный
    Продолжительность: 01:09:02
    Год выпуска: 2014
    -Перевод: Профессиональный (многоголосый, закадровый)
    Субтитры: нет
    Режиссёры: Алекс Кольс / Alex Colls
    -Описание:
    На одной ферме живут веселые и дружные зверушки: собачка, теленок, свинка, медвежонок, жираф и птичка. Однажды друзья находят в лесу волшебную Радугу, с помощью которой отправляются в веселое и захватывающее путешествие в мир фантазий, где их ждет множество приключений. В пути им будут встречаться разные трудности, но если рядом с тобой настоящие друзья, то ничего не страшно!
    Это уже не первая встреча с Любимчиками, знакомство с ними произошло в 2010 году, но теперь все изменилось – новые герои, увлекательный сюжет и многое другое...
    Мультсериал наполнен яркими красками и снят специально для самых маленьких. Общение между главными героями будет вызывать радость у ваших детей, и они обязательно станут добрее после просмотра этой увлекательной картины.
    -Релиз групп All Films и RG Torrents.ru-Сэмпл: https://www.sendspace.com/file/jsowj2-Качество: HRip - Исходник BDRip 720p (Спасибо -Azureus-)
    Формат: AVI
    Видео: 704x400 (1.76:1), 25 fps, XviD build 73 ~1365 kbps avg, 0.19 bit/pixel
    Аудио: 48 kHz, MPEG Layer 3, 2 ch, ~128.00 kbps avg
    -

    Отчёт MediaInfo

    General
    Complete name : C:\Users\Максим\Desktop\Мои релизы\The.Happets.in.the.Rainbow.Forest.2014.HDRip.polkera.avi
    Format : AVI
    Format/Info : Audio Video Interleave
    File size : 743 MiB
    Duration : 1h 9mn
    Overall bit rate : 1 504 Kbps
    Writing application : VirtualDubMod 1.5.10.3 | www.virtualdub-fr.org || (build 2550/release)
    Writing library : VirtualDubMod build 2550/release
    Video
    Format : MPEG-4 Visual
    Format profile : Streaming Video@L1
    Format settings, BVOP : Yes
    Format settings, QPel : No
    Format settings, GMC : No warppoints
    Format settings, Matrix : Custom
    Codec ID : XVID
    Codec ID/Hint : XviD
    Duration : 1h 9mn
    Bit rate : 1 366 Kbps
    Width : 704 pixels
    Height : 400 pixels
    Display aspect ratio : 16/9
    Frame rate : 25.000 fps
    Resolution : 24 bits
    Colorimetry : 4:2:0
    Scan type : Progressive
    Bits/(Pixel*Frame) : 0.194
    Stream size : 675 MiB (91%)
    Writing library : XviD 73
    Audio
    Format : MPEG Audio
    Format version : Version 1
    Format profile : Layer 3
    Codec ID : 55
    Codec ID/Hint : MP3
    Duration : 1h 9mn
    Bit rate mode : Constant
    Bit rate : 128 Kbps
    Channel(s) : 2 channels
    Sampling rate : 48.0 KHz
    Resolution : 16 bits
    Stream size : 63.2 MiB (9%)
    Alignment : Aligned on interleaves
    Interleave, duration : 40 ms (1.00 video frame)
    Interleave, preload duration : 504 ms
    Writing library : LAME3.99r
    Encoding settings : -m s -V 4 -q 2 -lowpass 17 -b 128

    -

    Скриншоты

    -
    |
    Скачать .torrent

    Скачать торрент-файл бесплатно и на максимальной скорости!

    Как скачивать? · Что такое торрент? · Рейтинг и ограничения

    !ВНИМАНИЕ!
    Сайт не распространяет и не хранит электронные версии произведений, а занимается лишь лишь предоставлением доступа к создаваемому пользователями каталогу ссылок на торрент-файлы, которые содержат только списки хеш-сумм, убедительная просьба с жалобами обращаться напрямую к пользователю. Файлы для обмена на трекере предоставлены пользователями сайта, и администрация не несёт ответственности за их содержание. Просьба не заливать файлы, защищенные авторскими правами, а также файлы нелегального содержания!


    _________________
    [Профиль] [ЛС]
    Показать сообщения:    
    Ответить на тему

    Текущее время: Сегодня, в 22:00

    Часовой пояс: GMT + 2



    Вы не можете начинать темы
    Вы не можете отвечать на сообщения
    Вы не можете редактировать свои сообщения
    Вы не можете удалять свои сообщения
    Вы не можете голосовать в опросах
    Вы не можете прикреплять файлы к сообщениям
    Вы не можете скачивать файлы