BitTorrentTracker PerecTracker.org
BitTorrentTracker PerecTracker.org
    
Регистрация  ·  Вход
 
 · 
Забыли пароль?

  • Оз: Нашествие летучих обезьян / Guardianes de Oz (Альберто Мар / Alberto Mar) [2015, Мексика, мультфильм, фэнтези, приключения, HDRip] Dub

    Ответить на тему
     
    Автор Сообщение

    Flirldrerve

    Создавать темы 13-Апр-2016 04:27

           

    [Цитировать]

    Оз: Нашествие летучих обезьян / Guardianes de Oz--Страна: Мексика
    Жанр: Мультфильм, фэнтези, приключения
    Продолжительность: 01:27:21
    Год выпуска: 2015
    -Перевод: Профессиональный (дублированный)
    Субтитры: нет
    Режиссёр: Альберто Мар / Alberto Mar
    -В ролях:
    Рауль Араиса, Раймундо Армихо, Лурдес Аррути, Ямил Атала, Лилиана Барба Майнеке, Энрике Сервантес, Бруно Коронел, Андрес Гарсиа, Артуро Гарсиа, Оскар Гариба, Магда Хинер, Эктор Эммануэль Гомес Джил
    -Описание:
    Вы помните, как все начиналось? Давным-давно в страну Оз прилетела юная героиня, ее звали Дороти, она смогла победить Коварную Ведьму Запада и добрая волшебница Глинда помогла ей вернуться домой. А друзья Дороти - Страшила, Железный Дровосек и Смелый Лев - стали правителями страны Оз. И все в волшебной стране было хорошо, пока Глинда по своей доброте не решила дать Коварной Ведьме Запада еще один шанс.
    Чары Злодейки поместили в метлу, а метлу передали Правителям. Но злая ведьма - есть злая ведьма, даже без своих чар... Знакомая с детства история, продолжение которой рассказывает маленькая летающая обезьянка, которая на самом деле не
    -Релиз групп All Films и RG Torrents.ru-Сэмпл: https://www.sendspace.com/file/50j1wl-Качество: HDRip - Исходник - BDRip 720p (-Azureus-)
    Формат: AVI
    Видео: 688x368 (1.87:1), 25 fps, XviD build 73 ~1052 kbps avg, 0.17 bit/pixel
    Аудио: 48 kHz, MPEG Layer 3, 2 ch, ~128.00 kbps avg
    -

    Отчёт MediaInfo

    General
    Complete name : C:\Users\Максим\Desktop\Мои релизы\Guardianes.de.Oz.2015.HDRip.polkera.avi
    Format : AVI
    Format/Info : Audio Video Interleave
    File size : 744 MiB
    Duration : 1h 27mn
    Overall bit rate : 1 190 Kbps
    Writing application : VirtualDubMod 1.5.10.3 | www.virtualdub-fr.org || (build 2550/release)
    Writing library : VirtualDubMod build 2550/release
    Video
    Format : MPEG-4 Visual
    Format profile : Streaming Video@L1
    Format settings, BVOP : Yes
    Format settings, QPel : No
    Format settings, GMC : No warppoints
    Format settings, Matrix : Custom
    Codec ID : XVID
    Codec ID/Hint : XviD
    Duration : 1h 27mn
    Bit rate : 1 053 Kbps
    Width : 688 pixels
    Height : 368 pixels
    Display aspect ratio : 1.870
    Frame rate : 25.000 fps
    Resolution : 24 bits
    Colorimetry : 4:2:0
    Scan type : Progressive
    Bits/(Pixel*Frame) : 0.166
    Stream size : 658 MiB (88%)
    Writing library : XviD 73
    Audio
    Format : MPEG Audio
    Format version : Version 1
    Format profile : Layer 3
    Codec ID : 55
    Codec ID/Hint : MP3
    Duration : 1h 27mn
    Bit rate mode : Constant
    Bit rate : 128 Kbps
    Channel(s) : 2 channels
    Sampling rate : 48.0 KHz
    Resolution : 16 bits
    Stream size : 80.0 MiB (11%)
    Alignment : Aligned on interleaves
    Interleave, duration : 40 ms (1.00 video frame)
    Interleave, preload duration : 504 ms
    Writing library : LAME3.99r
    Encoding settings : -m s -V 4 -q 2 -lowpass 17 -b 128

    -

    Скриншоты

    -
    |
    Скачать .torrent

    Скачать торрент-файл бесплатно и на максимальной скорости!

    Как скачивать? · Что такое торрент? · Рейтинг и ограничения

    !ВНИМАНИЕ!
    Сайт не распространяет и не хранит электронные версии произведений, а занимается лишь лишь предоставлением доступа к создаваемому пользователями каталогу ссылок на торрент-файлы, которые содержат только списки хеш-сумм, убедительная просьба с жалобами обращаться напрямую к пользователю. Файлы для обмена на трекере предоставлены пользователями сайта, и администрация не несёт ответственности за их содержание. Просьба не заливать файлы, защищенные авторскими правами, а также файлы нелегального содержания!


    _________________
    [Профиль] [ЛС]
    Показать сообщения:    
    Ответить на тему

    Текущее время: Сегодня, в 20:00

    Часовой пояс: GMT + 2



    Вы не можете начинать темы
    Вы не можете отвечать на сообщения
    Вы не можете редактировать свои сообщения
    Вы не можете удалять свои сообщения
    Вы не можете голосовать в опросах
    Вы не можете прикреплять файлы к сообщениям
    Вы не можете скачивать файлы