BitTorrentTracker PerecTracker.org
BitTorrentTracker PerecTracker.org
    
Регистрация  ·  Вход
 
 · 
Забыли пароль?

  • (ItaloDance) Gigi D'agostino - The Greatest Hits - 1996, FLAC (tracks+.cue), lossless

    Ответить на тему
     
    Автор Сообщение

    Columb

    Создавать темы 22-Янв-2014 19:36

           

    [Цитировать]

    Gigi D'agostino / The Greatest Hits
    Жанр: ItaloDance
    Год издания: 1996
    Страна: Италия
    Аудиокодек: FLAC (*.flac)
    Тип рипа: tracks+.cue
    Битрейт аудио: lossless
    Продолжительность: 01:17:08
    Источник (релизер): Вата
    Наличие сканов в содержимом раздачи: нет
    Треклист:
    01. Noise Maker Theme
    02. Sweetly
    03. Happily
    04. This Song Tears Easily
    05. The Mind's Journey (Pattern 1)
    06. Panic Mouse (Vrs 1) With Daniele Gas
    07. Giallone Remix With Daniele Gas
    08. Meravillia With Daniele Gas
    09. Creative Nature (Vol. 1 Vrs 1) With Daniele Gas
    10. Creative Nature (Vol. 1 Vrs 2) With Daniele Gas

    Лог создания рипа

    Exact Audio Copy V0.99 prebeta 5 from 4. May 2009
    EAC extraction logfile from 1. February 2011, 22:54
    Gigi D'Agostino / The Greatest Hits
    Used drive : TSSTcorpCD/DVDW TS-L532M Adapter: 0 ID: 1
    Read mode : SecureUtilize accurate stream : YesDefeat audio cache : YesMake use of C2 pointers : No
    Read offset correction : 116Overread into Lead-In and Lead-Out : NoFill up missing offset samples with silence : YesDelete leading and trailing silent blocks : NoNull samples used in CRC calculations : YesUsed interface : Native Win32 interface for Win NT & 2000Gap handling : Appended to previous track
    Used output format : User Defined EncoderSelected bitrate : 1024 kBit/sQuality : HighAdd ID3 tag : NoCommand line compressor : C:\Programmi\Exact Audio Copy\FLAC\FLAC.EXEAdditional command line options : -6 -V -T "ARTIST=%a" -T "TITLE=%t" -T "ALBUM=%g" -T "DATE=%y" -T "TRACKNUMBER=%n" -T "GENRE=%m" -T "COMMENT=%e" %s -o %d
    TOC of the extracted CD
    Track | Start | Length | Start sector | End sector --------------------------------------------------------- 1 | 0:00.00 | 8:52.30 | 0 | 39929 2 | 8:52.30 | 8:09.00 | 39930 | 76604 3 | 17:01.30 | 8:25.47 | 76605 | 114526 4 | 25:27.02 | 5:34.68 | 114527 | 139644 5 | 31:01.70 | 6:52.60 | 139645 | 170604 6 | 37:54.55 | 6:16.57 | 170605 | 198861 7 | 44:11.37 | 9:08.48 | 198862 | 240009 8 | 53:20.10 | 7:42.10 | 240010 | 274669 9 | 61:02.20 | 9:01.07 | 274670 | 315251 10 | 70:03.27 | 8:05.58 | 315252 | 351684
    Track 1
    Filename C:\Documents and Settings\alessandro\Documenti\flac what cd\01. Gigi D'Agostino - Noise Maker Theme.wav
    Pre-gap length 0:00:02.00
    Peak level 97.6 % Track quality 100.0 % Test CRC 7ABA7B17 Copy CRC 7ABA7B17 Track not present in AccurateRip database Copy OK
    Track 2
    Filename C:\Documents and Settings\alessandro\Documenti\flac what cd\02. Gigi D'Agostino - Sweetly.wav
    Pre-gap length 0:00:06.73
    Peak level 97.4 % Track quality 100.0 % Test CRC 7C7F5DB2 Copy CRC 7C7F5DB2 Track not present in AccurateRip database Copy OK
    Track 3
    Filename C:\Documents and Settings\alessandro\Documenti\flac what cd\03. Gigi D'Agostino - Happily.wav
    Pre-gap length 0:00:06.13
    Peak level 91.5 % Track quality 100.0 % Test CRC 63E67EAF Copy CRC 63E67EAF Track not present in AccurateRip database Copy OK
    Track 4
    Filename C:\Documents and Settings\alessandro\Documenti\flac what cd\04. Gigi D'Agostino - This Song Tears Easily.wav
    Pre-gap length 0:00:05.22
    Peak level 95.4 % Track quality 100.0 % Test CRC 9A7F332B Copy CRC 9A7F332B Track not present in AccurateRip database Copy OK
    Track 5
    Filename C:\Documents and Settings\alessandro\Documenti\flac what cd\05. Gigi D'Agostino - The Mind's Journey Pattern 1.wav
    Pre-gap length 0:00:07.25
    Peak level 98.1 % Track quality 100.0 % Test CRC 9121B1B2 Copy CRC 9121B1B2 Track not present in AccurateRip database Copy OK
    Track 6
    Filename C:\Documents and Settings\alessandro\Documenti\flac what cd\06. Gigi D'Agostino - Panic Mouse Vrs 1.wav
    Pre-gap length 0:00:05.20
    Peak level 98.5 % Track quality 100.0 % Test CRC 3A74028A Copy CRC 3A74028A Track not present in AccurateRip database Copy OK
    Track 7
    Filename C:\Documents and Settings\alessandro\Documenti\flac what cd\07. Gigi D'Agostino - Giallone Remix.wav
    Pre-gap length 0:00:03.27
    Peak level 91.2 % Track quality 100.0 % Test CRC A2F2DF63 Copy CRC A2F2DF63 Track not present in AccurateRip database Copy OK
    Track 8
    Filename C:\Documents and Settings\alessandro\Documenti\flac what cd\08. Gigi D'Agostino - Meravillia.wav
    Pre-gap length 0:00:02.65
    Peak level 84.2 % Track quality 100.0 % Test CRC D826B8BE Copy CRC D826B8BE Track not present in AccurateRip database Copy OK
    Track 9
    Filename C:\Documents and Settings\alessandro\Documenti\flac what cd\09. Gigi D'Agostino - Creative Nature Vol. 1 Vrs 1.wav
    Pre-gap length 0:00:05.23
    Peak level 84.4 % Track quality 100.0 % Test CRC 47A5D8B5 Copy CRC 47A5D8B5 Track not present in AccurateRip database Copy OK
    Track 10
    Filename C:\Documents and Settings\alessandro\Documenti\flac what cd\10. Gigi D'Agostino - Creative Nature Vol. 1 Vrs 2.wav
    Pre-gap length 0:00:02.42
    Peak level 99.8 % Track quality 100.0 % Test CRC F7B406B9 Copy CRC F7B406B9 Track not present in AccurateRip database Copy OK
    None of the tracks are present in the AccurateRip database
    No errors occurred
    End of status report

    Содержание индексной карты (.CUE)

    REM GENRE ProgressiveREM DATE 1996REM DISCID 7D12510AREM COMMENT "ExactAudioCopy v0.99pb5"PERFORMER "Gigi D'Agostino"TITLE "The Greatest Hits"FILE "01. Gigi D'Agostino - Noise Maker Theme.wav" WAVE TRACK 01 AUDIO TITLE "Noise Maker Theme" PERFORMER "Gigi D'Agostino" INDEX 01 00:00:00 TRACK 02 AUDIO TITLE " Sweetly" PERFORMER "Gigi D'Agostino" INDEX 00 08:45:32FILE "02. Gigi D'Agostino - Sweetly.wav" WAVE INDEX 01 00:00:00 TRACK 03 AUDIO TITLE " Happily" PERFORMER "Gigi D'Agostino" INDEX 00 08:02:62FILE "03. Gigi D'Agostino - Happily.wav" WAVE INDEX 01 00:00:00 TRACK 04 AUDIO TITLE " This Song Tears Easily" PERFORMER "Gigi D'Agostino" INDEX 00 08:20:25FILE "04. Gigi D'Agostino - This Song Tears Easily.wav" WAVE INDEX 01 00:00:00 TRACK 05 AUDIO TITLE "The Mind's Journey Pattern 1" PERFORMER "Gigi D'Agostino" INDEX 00 05:27:43FILE "05. Gigi D'Agostino - The Mind's Journey Pattern 1.wav" WAVE INDEX 01 00:00:00 TRACK 06 AUDIO TITLE " Panic Mouse Vrs 1" PERFORMER "Gigi D'Agostino" INDEX 00 06:47:40FILE "06. Gigi D'Agostino - Panic Mouse Vrs 1.wav" WAVE INDEX 01 00:00:00 TRACK 07 AUDIO TITLE "Giallone Remix" PERFORMER "Gigi D'Agostino" INDEX 00 06:13:30FILE "07. Gigi D'Agostino - Giallone Remix.wav" WAVE INDEX 01 00:00:00 TRACK 08 AUDIO TITLE "Meravillia" PERFORMER "Gigi D'Agostino" INDEX 00 09:05:58FILE "08. Gigi D'Agostino - Meravillia.wav" WAVE INDEX 01 00:00:00 TRACK 09 AUDIO TITLE " Creative Nature Vol. 1 Vrs 1" PERFORMER "Gigi D'Agostino" INDEX 00 07:36:62FILE "09. Gigi D'Agostino - Creative Nature Vol. 1 Vrs 1.wav" WAVE INDEX 01 00:00:00 TRACK 10 AUDIO TITLE " Creative Nature Vol. 1 Vrs 2" PERFORMER "Gigi D'Agostino" INDEX 00 08:58:40FILE "10. Gigi D'Agostino - Creative Nature Vol. 1 Vrs 2.wav" WAVE INDEX 01 00:00:00
    Скачать .torrent

    Скачать торрент-файл бесплатно и на максимальной скорости!

    Как скачивать? · Что такое торрент? · Рейтинг и ограничения

    !ВНИМАНИЕ!
    Сайт не распространяет и не хранит электронные версии произведений, а занимается лишь лишь предоставлением доступа к создаваемому пользователями каталогу ссылок на торрент-файлы, которые содержат только списки хеш-сумм, убедительная просьба с жалобами обращаться напрямую к пользователю. Файлы для обмена на трекере предоставлены пользователями сайта, и администрация не несёт ответственности за их содержание. Просьба не заливать файлы, защищенные авторскими правами, а также файлы нелегального содержания!

    [Профиль] [ЛС]
    Показать сообщения:    
    Ответить на тему

    Текущее время: Сегодня, в 18:16

    Часовой пояс: GMT + 2



    Вы не можете начинать темы
    Вы не можете отвечать на сообщения
    Вы не можете редактировать свои сообщения
    Вы не можете удалять свои сообщения
    Вы не можете голосовать в опросах
    Вы не можете прикреплять файлы к сообщениям
    Вы не можете скачивать файлы