BitTorrentTracker PerecTracker.org
BitTorrentTracker PerecTracker.org
    
Регистрация  ·  Вход
 
 · 
Забыли пароль?

  • Невероятная тайна Лулу / Loulou, l\'incroyable secret (Эрик Омон / Eric Omond) [2013, Франция, Бельгия, Венгрия, мультфильм, семейный, HDRip] Dub

    Ответить на тему
     
    Автор Сообщение

    Flirldrerve

    Создавать темы 13-Апр-2016 00:13

           

    [Цитировать]

    Невероятная тайна Лулу / Loulou, l'incroyable secret--Страна: Франция, Бельгия, Венгрия
    Жанр: мультфильм, семейный
    Продолжительность: 01:20:08
    Год выпуска: 2013
    -Перевод: Профессиональный (дублированный)
    Субтитры: нет
    Режиссёр: Эрик Омон / Eric Omond
    -В ролях:
    Малик Зиди, Стефан Дебак, Анаис Демустье, Карло Брандт, Марианн Басле, Леоноре Ше, Сара-Джейн Совегран, Патрик Пару, Мари Берто, Реми Рубаха
    -Описание:
    Волчонок Лулу и кролик Том дружат с самого детства. Однажды Лулу узнает, что зря считал себя сиротой — его мама живет в далекой Стране волков. Друзья отправляются в путь, где их ждет множество испытаний. Удастся ли сохранить дружбу, несмотря на трудности, найти маму Лулу и приоткрыть завесу тайны его рождения?
    -Релиз групп All Films и RG Torrents.ru-Сэмпл: https://www.sendspace.com/file/9esl00-Качество: HDRip - Исходник - BDRip 720p (-Azureus-)
    Формат: AVI
    Видео: 688x368 (1.87:1), 25 fps, XviD build 73 ~1159 kbps avg, 0.18 bit/pixel
    Аудио: 48 kHz, MPEG Layer 3, 2 ch, ~128.00 kbps avg
    -

    Отчёт MediaInfo

    General
    Complete name : C:\Users\Максим\Desktop\Мои релизы\Neverojatnaja.Taina.Lulu.2013.HDRip.polkera.avi
    Format : AVI
    Format/Info : Audio Video Interleave
    File size : 744 MiB
    Duration : 1h 20mn
    Overall bit rate : 1 298 Kbps
    Writing application : VirtualDubMod 1.5.10.3 | www.virtualdub-fr.org || (build 2550/release)
    Writing library : VirtualDubMod build 2550/release
    Video
    Format : MPEG-4 Visual
    Format profile : Streaming Video@L1
    Format settings, BVOP : Yes
    Format settings, QPel : No
    Format settings, GMC : No warppoints
    Format settings, Matrix : Custom
    Codec ID : XVID
    Codec ID/Hint : XviD
    Duration : 1h 20mn
    Bit rate : 1 160 Kbps
    Width : 688 pixels
    Height : 368 pixels
    Display aspect ratio : 1.870
    Frame rate : 25.000 fps
    Resolution : 24 bits
    Colorimetry : 4:2:0
    Scan type : Progressive
    Bits/(Pixel*Frame) : 0.183
    Stream size : 665 MiB (89%)
    Writing library : XviD 73
    Audio
    Format : MPEG Audio
    Format version : Version 1
    Format profile : Layer 3
    Codec ID : 55
    Codec ID/Hint : MP3
    Duration : 1h 20mn
    Bit rate mode : Constant
    Bit rate : 128 Kbps
    Channel(s) : 2 channels
    Sampling rate : 48.0 KHz
    Resolution : 16 bits
    Stream size : 73.4 MiB (10%)
    Alignment : Aligned on interleaves
    Interleave, duration : 40 ms (1.00 video frame)
    Interleave, preload duration : 504 ms
    Writing library : LAME3.99r
    Encoding settings : -m s -V 4 -q 2 -lowpass 17 -b 128

    -

    Скриншоты

    -
    |
    Скачать .torrent

    Скачать торрент-файл бесплатно и на максимальной скорости!

    Как скачивать? · Что такое торрент? · Рейтинг и ограничения

    !ВНИМАНИЕ!
    Сайт не распространяет и не хранит электронные версии произведений, а занимается лишь лишь предоставлением доступа к создаваемому пользователями каталогу ссылок на торрент-файлы, которые содержат только списки хеш-сумм, убедительная просьба с жалобами обращаться напрямую к пользователю. Файлы для обмена на трекере предоставлены пользователями сайта, и администрация не несёт ответственности за их содержание. Просьба не заливать файлы, защищенные авторскими правами, а также файлы нелегального содержания!


    _________________
    [Профиль] [ЛС]
    Показать сообщения:    
    Ответить на тему

    Текущее время: Сегодня, в 16:32

    Часовой пояс: GMT + 2



    Вы не можете начинать темы
    Вы не можете отвечать на сообщения
    Вы не можете редактировать свои сообщения
    Вы не можете удалять свои сообщения
    Вы не можете голосовать в опросах
    Вы не можете прикреплять файлы к сообщениям
    Вы не можете скачивать файлы