BitTorrentTracker PerecTracker.org
BitTorrentTracker PerecTracker.org
    
Регистрация  ·  Вход
 
 · 
Забыли пароль?

  • LEGO Супергерои DC Comics – Лига Справедливости: Атака Легиона Гибели / LEGO DC Super Heroes: Justice League - Attack of the Legion of Doom! (Рик Моралес / Rick Morales) [2015, США, мультфильм, боевик, комедия, приключения, BDRip] MVO + original Eng

    Ответить на тему
     
    Автор Сообщение

    Flirldrerve

    Создавать темы 13-Апр-2016 00:13

           

    [Цитировать]

    LEGO Супергерои DC Comics – Лига Справедливости: Атака Легиона Гибели
    LEGO DC Super Heroes: Justice League - Attack of the Legion of Doom!

    Страна: США
    Жанр: мультфильм, боевик, комедия, приключения
    Продолжительность: 01:17:01
    Год выпуска: 2015
    Перевод: Профессиональный (многоголосый закадровый)
    Русские субтитры: нет

    Режиссёр: Рик Моралес / Rick Morales
    Роли озвучивали: Ди Брэдли Бейкер, Трой Бэйкер, Джон Ди Маджио, Грэй Гриффин, Марк Хэмилл, Том Кенни, Нолан Норт, Джошуа Китон, Хари Пэйтон, Кевин Майкл Ричардсон
    Описание: С того момента, как была создана Лига Справедливости, держащая Метрополис в безопасности, преступники все время в бегах, и это огорчает злого гения Лекса Лютора. Вместе с Черной Мантой, Синестро и другими безжалостными союзниками Лекс создает свою команду и называет ее Легион Гибели. Неужели вместе с суперсильной злодейской командой и планом атаки на сверхсекретную правительственную базу, Зону 52, Лекс находится на грани победы? Врубайте тревогу и приготовьтесь, потому что кубики полетят во все стороны, когда Супермен, Бэтмен Чудо-Женщина и остальные участники Лиги Справедливости сразятся лицом к лицу с величайшими суперзлодеями!

    Качество: BDRip
    Формат: AVI
    Видео: 704x400 (1.76:1), 23.976 fps, XviD MPEG-4 ~2056 kbps avg, 0.30 bit/pixel
    Аудио: 48 kHz, AC3 Dolby Digital, 2/0 (L,R) ch, ~192 kbps - многоголосый
    Аудио: 48 kHz, AC3 Dolby Digital, 3/2 (L,C,R,l,r) + LFE ch, ~448 kbps - оригинал
    Субтитры: отсутствуют

    Подробные технические данные

    ОбщееПолное имя : H:\LEGO.DC_Super.Heroes.Justice.League_Attack.of.the.Legion.of.Doom!2015.bdrip_[1.46]_[teko].aviФормат : AVIФормат/Информация : Audio Video InterleaveРазмер файла : 1,46 ГбайтПродолжительность : 1 ч. 17 м.Общий поток : 2711 Кбит/секПрограмма кодирования : VirtualDubMod 1.5.10.3 | www.virtualdub-fr.org || (build 2550/release)Библиотека кодирования : VirtualDubMod build 2550/release
    ВидеоИдентификатор : 0Формат : MPEG-4 VisualПрофиль формата : Advanced Simple@L5Параметр BVOP формата : 2Параметр QPel формата : НетПараметр GMC формата : Без точки переходаПараметр матрицы формата : ВыборочнаяИдентификатор кодека : XVIDИдентификатор кодека/Подсказка : XviDПродолжительность : 1 ч. 17 м.Битрейт : 2057 Кбит/секШирина : 704 пикселяВысота : 400 пикселейСоотношение сторон : 16:9Частота кадров : 23,976 кадра/секЦветовое пространство : YUVСубдискретизация насыщенности : 4:2:0Битовая глубина : 8 битТип развёртки : ПрогрессивнаяМетод сжатия : С потерямиБит/(Пиксели*Кадры) : 0.305Размер потока : 1,11 Гбайт (76%)Библиотека кодирования : XviD 73
    Аудио #1Идентификатор : 1Формат : AC-3Формат/Информация : Audio Coding 3Расширение режима : CM (complete main)Параметр Endianness формата : BigИдентификатор кодека : 2000Продолжительность : 1 ч. 17 м.Вид битрейта : ПостоянныйБитрейт : 192 Кбит/секКаналы : 2 каналаРасположение каналов : Front: L RЧастота : 48,0 КГцБитовая глубина : 16 битМетод сжатия : С потерямиРазмер потока : 106 Мбайт (7%)Выравнивание : Разделение по промежуткамПродолжительность промежутка : 42 мс. (1,00 видеокадр)Время предзагрузки промежутка : 500 мс.
    Аудио #2Идентификатор : 2Формат : AC-3Формат/Информация : Audio Coding 3Расширение режима : CM (complete main)Параметр Endianness формата : BigИдентификатор кодека : 2000Продолжительность : 1 ч. 17 м.Вид битрейта : ПостоянныйБитрейт : 448 Кбит/секКаналы : 6 каналовРасположение каналов : Front: L C R, Side: L R, LFEЧастота : 48,0 КГцБитовая глубина : 16 битМетод сжатия : С потерямиРазмер потока : 247 Мбайт (17%)Выравнивание : Разделение по промежуткамПродолжительность промежутка : 42 мс. (1,00 видеокадр)Время предзагрузки промежутка : 500 мс.

    Скриншоты

    Релиз группы:

    -
    -
    Скачать .torrent

    Скачать торрент-файл бесплатно и на максимальной скорости!

    Как скачивать? · Что такое торрент? · Рейтинг и ограничения

    !ВНИМАНИЕ!
    Сайт не распространяет и не хранит электронные версии произведений, а занимается лишь лишь предоставлением доступа к создаваемому пользователями каталогу ссылок на торрент-файлы, которые содержат только списки хеш-сумм, убедительная просьба с жалобами обращаться напрямую к пользователю. Файлы для обмена на трекере предоставлены пользователями сайта, и администрация не несёт ответственности за их содержание. Просьба не заливать файлы, защищенные авторскими правами, а также файлы нелегального содержания!


    _________________
    [Профиль] [ЛС]
    Показать сообщения:    
    Ответить на тему

    Текущее время: Сегодня, в 15:55

    Часовой пояс: GMT + 2



    Вы не можете начинать темы
    Вы не можете отвечать на сообщения
    Вы не можете редактировать свои сообщения
    Вы не можете удалять свои сообщения
    Вы не можете голосовать в опросах
    Вы не можете прикреплять файлы к сообщениям
    Вы не можете скачивать файлы