BitTorrentTracker PerecTracker.org
BitTorrentTracker PerecTracker.org
    
Регистрация  ·  Вход
 
 · 
Забыли пароль?

  • Опасная зона / Danger Zone (Аллан Истмэн / Allan Eastman) [1996, Канада, ЮАР, США, Боевик, WEB-DL 720p] DVO (НТВ) + AVO (А. Гаврилов) + Sub Eng + Original Eng

    Ответить на тему
     
    Автор Сообщение

    Light

    Создавать темы 12-Апр-2016 20:01

           

    [Цитировать]

    Опасная Зона / Danger Zone-Страна: Канада, ЮАР, США
    Жанр: Боевик
    Год выпуска: 1996
    Продолжительность: 1:32:29-Перевод: Профессиональный (двухголосый закадровый) НТВ
    Перевод 2: Авторский (одноголосый закадровый) А. Гаврилов
    Cубтитры: английские SDH
    Оригинальная аудиодорожка: английский-Режиссер: Аллан Истмэн / Allan Eastman
    Продюсер: Дэнни Лернер, Эли Самаха, Джефф Альберт
    Сценарий: Джефф Альберт, Сэмюэл Бенедикт, Дэнни Лернер-В ролях: Билли Зейн, Кэри-Хироюки Тагава, Рон Сильвер, Роберт Дауни мл., Лиза Коллинз, Патрик Шай, Рассел Савадье, Грег Лэттер, Эрик Мийени, Элизабет Матебула-Описание: Если вход запрещен, а выхода нет, человеку не остается ничего другого, и он принимает бой. Горный инженер Рик Морган, ответив на предложение миллионера Мориса Дюпона, возвращается в Африку, чтобы найти своего друга Джима, которого Рик считал погибшим.
    Под жарким тропическим солнцем Моргана ждет не только встреча с Джимом, не только любовь обаятельной Ким, но и смертельный поединок с агентом северокорейской разведки Чангом...- -Доп. информация:
    Перевод НТВ с раздачи DiDimus, А. Гаврилов с раздачи Sergunka172.-Сэмпл: http://multi-up.com/1097084
    Тип релиза: WEB-DL 720p
    Контейнер: MKV
    Исходник: iTunes US
    Видео: MPEG4 Video (H264) 1280x718 23.976fps ~4041Kbps
    Аудио: 48 kHz, AC3, 2/0 (L,R) ch, ~192.00 kbps avg |Двухголосый закадровый, НТВ|
    Аудио 2: 48 kHz, AC3, 2/0 (L,R) ch, ~192.00 kbps avg |Одноголосый закадровый, А.Гаврилов|
    Аудио 3: 48 kHz, AAC, 2/0 (L,R) ch, ~160.00 kbps avg |Оригинал|
    Формат субтитров: softsub (SRT)
    Главы: 12 шт.

    MediaInfo

    General
    Unique ID                   : 174141705393630615878099792376838298624 (0x830278F5A8244194BF7F3CEBDE151C00)
    Complete name               : D:\!HD\!Раздача\Danger.Zone.1996.WEB-DL.720p.2xRus.Eng.mkv
    Format                      : Matroska
    Format version              : Version 4 / Version 2
    File size                   : 2.94 GiB
    Duration                    : 1h 32mn
    Overall bit rate            : 4 557 Kbps
    Encoded date                : UTC 2016-04-11 17:13:56
    Writing application         : mkvmerge v8.3.0 ('Over the Horizon') 64bit
    Writing library             : libebml v1.3.1 + libmatroska v1.4.2
    Video
    ID                          : 1
    Format                      : AVC
    Format/Info                 : Advanced Video Codec
    Format profile              : High@L3.1
    Format settings, CABAC      : No
    Format settings, ReFrames   : 2 frames
    Codec ID                    : V_MPEG4/ISO/AVC
    Duration                    : 1h 32mn
    Bit rate                    : 4 041 Kbps
    Width                       : 1 280 pixels
    Height                      : 718 pixels
    Display aspect ratio        : 16:9
    Frame rate mode             : Constant
    Frame rate                  : 23.976 (24000/1001) fps
    Color space                 : YUV
    Chroma subsampling          : 4:2:0
    Bit depth                   : 8 bits
    Scan type                   : Progressive
    Bits/(Pixel*Frame)          : 0.183
    Stream size                 : 2.61 GiB (89%)
    Title                       : Danger Zone 1996 WEB-DL 720p
    Language                    : English
    Default                     : Yes
    Forced                      : No
    Color range                 : Limited
    Color primaries             : BT.709
    Transfer characteristics    : BT.709
    Matrix coefficients         : BT.709
    Audio #1
    ID                          : 2
    Format                      : AC-3
    Format/Info                 : Audio Coding 3
    Mode extension              : CM (complete main)
    Format settings, Endianness : Big
    Codec ID                    : A_AC3
    Duration                    : 1h 32mn
    Bit rate mode               : Constant
    Bit rate                    : 192 Kbps
    Channel(s)                  : 2 channels
    Channel positions           : Front: L R
    Sampling rate               : 48.0 KHz
    Frame rate                  : 31.250 fps (1536 spf)
    Compression mode            : Lossy
    Stream size                 : 127 MiB (4%)
    Title                       : 48 kHz, AC3, 2/0 (L,R) ch, ~192.00 kbps avg |Двухголосый закадровый, НТВ|
    Language                    : Russian
    Default                     : No
    Forced                      : No
    Audio #2
    ID                          : 3
    Format                      : AC-3
    Format/Info                 : Audio Coding 3
    Mode extension              : CM (complete main)
    Format settings, Endianness : Big
    Codec ID                    : A_AC3
    Duration                    : 1h 32mn
    Bit rate mode               : Constant
    Bit rate                    : 192 Kbps
    Channel(s)                  : 2 channels
    Channel positions           : Front: L R
    Sampling rate               : 48.0 KHz
    Frame rate                  : 31.250 fps (1536 spf)
    Compression mode            : Lossy
    Stream size                 : 127 MiB (4%)
    Title                       : 48 kHz, AC3, 2/0 (L,R) ch, ~192.00 kbps avg |Одноголосый закадровый, А.Гаврилов|
    Language                    : Russian
    Default                     : No
    Forced                      : No
    Audio #3
    ID                          : 4
    Format                      : AAC
    Format/Info                 : Advanced Audio Codec
    Format profile              : LC
    Codec ID                    : A_AAC
    Duration                    : 1h 32mn
    Bit rate                    : 129 Kbps
    Channel(s)                  : 2 channels
    Channel positions           : Front: L R
    Sampling rate               : 48.0 KHz
    Frame rate                  : 46.875 fps (1024 spf)
    Compression mode            : Lossy
    Stream size                 : 85.6 MiB (3%)
    Title                       : 48 kHz, AAC, 2/0 (L,R) ch, ~160.00 kbps avg
    Language                    : English
    Default                     : No
    Forced                      : No
    Text
    ID                          : 5
    Format                      : UTF-8
    Codec ID                    : S_TEXT/UTF8
    Codec ID/Info               : UTF-8 Plain Text
    Duration                    : 1h 31mn
    Bit rate                    : 46 bps
    Count of elements           : 1373
    Stream size                 : 31.0 KiB (0%)
    Title                       : SDH
    Language                    : English
    Default                     : No
    Forced                      : No
    Menu
    00:00:00.000                : en:Chapter 1
    00:04:35.000                : en:Chapter 2
    00:13:25.000                : en:Chapter 3
    00:19:55.000                : en:Chapter 4
    00:27:32.000                : en:Chapter 5
    00:37:51.000                : en:Chapter 6
    00:44:31.000                : en:Chapter 7
    00:51:56.000                : en:Chapter 8
    01:02:30.000                : en:Chapter 9
    01:12:36.000                : en:Chapter 10
    01:20:55.000                : en:Chapter 11
    01:29:13.000                : en:Chapter 12

    Скриншоты

    Скачать .torrent

    Скачать торрент-файл бесплатно и на максимальной скорости!

    Как скачивать? · Что такое торрент? · Рейтинг и ограничения

    !ВНИМАНИЕ!
    Сайт не распространяет и не хранит электронные версии произведений, а занимается лишь лишь предоставлением доступа к создаваемому пользователями каталогу ссылок на торрент-файлы, которые содержат только списки хеш-сумм, убедительная просьба с жалобами обращаться напрямую к пользователю. Файлы для обмена на трекере предоставлены пользователями сайта, и администрация не несёт ответственности за их содержание. Просьба не заливать файлы, защищенные авторскими правами, а также файлы нелегального содержания!


    _________________
    [Профиль] [ЛС]
    Показать сообщения:    
    Ответить на тему

    Текущее время: Сегодня, в 11:10

    Часовой пояс: GMT + 2



    Вы не можете начинать темы
    Вы не можете отвечать на сообщения
    Вы не можете редактировать свои сообщения
    Вы не можете удалять свои сообщения
    Вы не можете голосовать в опросах
    Вы не можете прикреплять файлы к сообщениям
    Вы не можете скачивать файлы