BitTorrentTracker PerecTracker.org
BitTorrentTracker PerecTracker.org
    
Регистрация  ·  Вход
 
 · 
Забыли пароль?

  • Тайное общество Супилинна / Supilinna Salaselts / Soppakaupungin salaseura / The Secret Society of Souptown (Маргус Пайу / Margus Paju) [2015, Эстония, Финляндия, фэнтези, боевик, детектив, семейный, BDRip] Dub + Sub (Rus, Eng, Est) + Original (Est)

    Ответить на тему
     
    Автор Сообщение

    Light

    Создавать темы 12-Апр-2016 20:01

           

    [Цитировать]

    Тайное общество Супилинна / Supilinna Salaselts
    Страна: Эстония, Финляндия
    Жанр: фэнтези, боевик, детектив, приключения, семейный
    Годы выпуска: 2015
    Продолжительность: 01:44:47
    Перевод: Профессиональный (дублированный)
    Субтитры: русские, английские, эстонские
    Оригинальная аудиодорожка: эстонский
    Режиссер: Маргус Пайу / Margus Paju
    В ролях: Оливиа Виикант, Арабелла Антон, Карл Якоб Вибур, Хьюго Соосаар, Эвелин Панг, Миртел Пола, Сампо Саркола, Тиит Лиллеорг, Отт Аардам
    Описание: В очередные летние каникулы четверо детей — Мари, Саду, Олав и Антон — решили организовать команду. Чтобы дети не болтались без дела по городу, дедушка Мари придумал для них интересную игру. Они должны разыскивать в определенных местах предметы, которые он указывал на карте. Но в эту игру вмешалось одно обстоятельство. Кто-то в городе стал распространять странное вещество, от которого взрослые своим поведением стали напоминать детей. Теперь эта четверка должна остановить злодея и найти противоядие, чтобы спасти своих родственников и знакомых.
    Доп. информация:
    Качество видео: BDRip | crazy_gringo/Blu-ray BALTiC 1080i AVC DD5.1
    Формат видео: AVI
    Видео: 720x304 (2.37:1), 25 fps, XviD build 73 ~2063 kbps avg, 0.38 bit/pixel
    Аудио 1: 48 kHz, AC3 Dolby Digital, 3/2 (L,C,R,l,r) + LFE ch, ~448 kbps дубляж
    Аудио 2: 48 kHz, AC3 Dolby Digital, 3/2 (L,C,R,l,r) + LFE ch, ~448 kbps оригинал
    Формат субтитров: softsub (SRT)

    MediaInfo

    General
    Complete name : C:\Users\User\Desktop\Supilinna.Salaselts.2015.BDRip.Dub.Est_by_LBS.avi
    Format : AVI
    Format/Info : Audio Video Interleave
    Format profile : OpenDML
    File size : 2.18 GiB
    Duration : 1h 44mn
    Overall bit rate : 2 977 Kbps
    Director : Last Boy Scout
    Writing application : VirtualDubMod 1.5.10.3 | www.virtualdub-fr.org || (build 2550/release)
    Copyright : perectracker.org 12.04.2016
    Comment : BDRip Dub + Original (Est)
    Video
    ID : 0
    Format : MPEG-4 Visual
    Format profile : Advanced Simple@L5
    Format settings, BVOP : 1
    Format settings, QPel : No
    Format settings, GMC : No warppoints
    Format settings, Matrix : Custom
    Codec ID : XVID
    Codec ID/Hint : XviD
    Duration : 1h 44mn
    Bit rate : 2 063 Kbps
    Width : 720 pixels
    Height : 304 pixels
    Display aspect ratio : 2.35:1
    Frame rate : 25.000 fps
    Color space : YUV
    Chroma subsampling : 4:2:0
    Bit depth : 8 bits
    Scan type : Progressive
    Compression mode : Lossy
    Bits/(Pixel*Frame) : 0.377
    Stream size : 1.51 GiB (69%)
    Writing library : XviD 73
    Audio #1
    ID : 1
    Format : AC-3
    Format/Info : Audio Coding 3
    Mode extension : CM (complete main)
    Format settings, Endianness : Big
    Codec ID : 2000
    Duration : 1h 44mn
    Bit rate mode : Constant
    Bit rate : 448 Kbps
    Channel(s) : 6 channels
    Channel positions : Front: L C R, Side: L R, LFE
    Sampling rate : 48.0 KHz
    Bit depth : 16 bits
    Compression mode : Lossy
    Stream size : 336 MiB (15%)
    Alignment : Split accross interleaves
    Interleave, duration : 40 ms (1.00 video frame)
    Interleave, preload duration : 500 ms
    Audio #2
    ID : 2
    Format : AC-3
    Format/Info : Audio Coding 3
    Mode extension : CM (complete main)
    Format settings, Endianness : Big
    Codec ID : 2000
    Duration : 1h 44mn
    Bit rate mode : Constant
    Bit rate : 448 Kbps
    Channel(s) : 6 channels
    Channel positions : Front: L C R, Side: L R, LFE
    Sampling rate : 48.0 KHz
    Bit depth : 16 bits
    Compression mode : Lossy
    Stream size : 336 MiB (15%)
    Alignment : Split accross interleaves
    Interleave, duration : 40 ms (1.00 video frame)
    Interleave, preload duration : 500 ms

    Скриншоты

    -
    Скачать .torrent

    Скачать торрент-файл бесплатно и на максимальной скорости!

    Как скачивать? · Что такое торрент? · Рейтинг и ограничения

    !ВНИМАНИЕ!
    Сайт не распространяет и не хранит электронные версии произведений, а занимается лишь лишь предоставлением доступа к создаваемому пользователями каталогу ссылок на торрент-файлы, которые содержат только списки хеш-сумм, убедительная просьба с жалобами обращаться напрямую к пользователю. Файлы для обмена на трекере предоставлены пользователями сайта, и администрация не несёт ответственности за их содержание. Просьба не заливать файлы, защищенные авторскими правами, а также файлы нелегального содержания!


    _________________
    [Профиль] [ЛС]
    Показать сообщения:    
    Ответить на тему

    Текущее время: Сегодня, в 00:04

    Часовой пояс: GMT + 2



    Вы не можете начинать темы
    Вы не можете отвечать на сообщения
    Вы не можете редактировать свои сообщения
    Вы не можете удалять свои сообщения
    Вы не можете голосовать в опросах
    Вы не можете прикреплять файлы к сообщениям
    Вы не можете скачивать файлы