BitTorrentTracker PerecTracker.org
BitTorrentTracker PerecTracker.org
    
Регистрация  ·  Вход
 
 · 
Забыли пароль?

  • Сдохни, Джон Такер! / John Tucker Must Die (Бетти Томас / Betty Thomas) [2-in-1: Theatrical & Unrated Cut] [2006, США, Канада, мелодрама, комедия, Blu-ray disc 1080p] [EE] Dub + Sub Rus, Eng + Original Eng

    Ответить на тему
     
    Автор Сообщение

    Light

    Создавать темы 12-Апр-2016 15:49

           

    [Цитировать]

    Сдохни, Джон Такер! / John Tucker Must Die
    Страна: США, Канада
    Жанр: мелодрама, комедия
    Год выпуска: 2006
    Продолжительность: 01:29:41 | 01:29:51
      -Перевод: Профессиональный (дублированный)
        -Cубтитры: Английский, Китайский, Хорватский, Чешский, Датский, Голландский, Финский, Французский, Немецкий, Греческий, Иврит, Исландский, Итальянский, Корейский, Норвежский, Португальский, Румынский, Русский, Словенский, Испанский, Шведский, Тайский, Турецкий
        Оригинальная аудиодорожка: английский
          -Режиссер: Бетти Томас / Betty Thomas
            -В ролях: Джесси Меткалф, Бриттани Сноу, Ашанти, София Буш, Ариэль Кеббел, Пенн Бэджли, Дженни МакКарти, Фацо-Фасано, Кевин МакНалти, Патриция Дрэйк
            Описание: Три бывшие подружки крутого школьного ловеласа решают ему отомстить. Для приведения жестокого плана в действие нужна приманка. Выбор падает на только что переехавшую в их школу очаровательную блондиночку.
              -Тип релиза: Blu-ray disc
              Контейнер: BDMV
                -Видео: MPEG-4 AVC Video 29912 kbps 1080p / 23,976 fps / 16:9 / High Profile 4.1
                  -Аудио 01: DTS-HD Master Audio English 4176 kbps 5.1 / 48 kHz / 4176 kbps / 24-bit (DTS Core: 5.1 / 48 kHz / 1509 kbps / 24-bit)
                  Аудио 02: DTS Audio French 768 kbps 5.1 / 48 kHz / 768 kbps / 24-bit
                  Аудио 03: DTS Audio German 768 kbps 5.1 / 48 kHz / 768 kbps / 24-bit
                  Аудио 04: DTS Audio Italian 768 kbps 5.1 / 48 kHz / 768 kbps / 24-bit
                  Аудио 05: DTS Audio Japanese 768 kbps 5.1 / 48 kHz / 768 kbps / 24-bit
                  Аудио 06: DTS Audio Russian 768 kbps 5.1 / 48 kHz / 768 kbps / 24-bit
                  Аудио 07: DTS Audio Spanish 768 kbps 5.1 / 48 kHz / 768 kbps / 24-bit
                  Аудио 08: Dolby Digital Audio Czech 448 kbps 5.1 / 48 kHz / 448 kbps
                  Аудио 09: Dolby Digital Audio Polish 448 kbps 5.1 / 48 kHz / 448 kbps
                  Аудио 10: Dolby Digital Audio Portuguese 448 kbps 5.1 / 48 kHz / 448 kbps
                  Аудио 11: Dolby Digital Audio Spanish 448 kbps 5.1 / 48 kHz / 448 kbps
                  Аудио 12: Dolby Digital Audio Ukrainian 448 kbps 5.1 / 48 kHz / 448 kbps
                  Аудио 13: Dolby Digital Audio English 224 kbps 2.0 / 48 kHz / 224 kbps
                  Аудио 14: Dolby Digital Audio English 224 kbps 2.0 / 48 kHz / 224 kbps
                  Аудио 15: Dolby Digital Audio French 224 kbps 2.0 / 48 kHz / 224 kbps / Dolby Surround
                  Аудио 16: Dolby Digital Audio Turkish 224 kbps 2.0 / 48 kHz / 224 kbpsДополнительно
                  Цитата:
                  Цитата:

                  Релиз HDCLUB
                  CEE - Central Eastern Europe original release!
                  На диске
                  • Комментарии режиссера
                  • Театральная версия
                  • Режиссерская версия
                  • Комментарий режиссера Бетти Томас и режиссера монтажа Мэтью Фридмана
                  • Удаленные сцены
                  • В старых мыслях
                  • Женская сила
                  • Прогуливая уроки с Джесси Меткалф
                  • Календарь Кадьяка
                  • Живое исполнение композиции "Instantly Gratified" группа People in Planes
                  • Рекламный ролик
                  • Кинотеатральный ролик

                  BDInfo

                  DISC INFO:
                  Disc Title: John Tucker Must Die
                  Disc Size: 35 090 767 087 bytes
                  Protection: AACS
                  BD-Java: Yes
                  BDInfo: 0.5.6
                  PLAYLIST REPORT:
                  Name: 00801.MPLS
                  Length: 1:29:51 (h:m:s)
                  Size: 30 871 308 288 bytes
                  Total Bitrate: 45,81 Mbps
                  (*) Indicates included stream hidden by this playlist.
                  VIDEO:
                  Codec Bitrate Description
                  ----- ------- -----------
                  MPEG-4 AVC Video 29912 kbps 1080p / 23,976 fps / 16:9 / High Profile 4.1
                  AUDIO:
                  Codec Language Bitrate Description
                  ----- -------- ------- -----------
                  DTS-HD Master Audio English 4176 kbps 5.1 / 48 kHz / 4176 kbps / 24-bit (DTS Core: 5.1 / 48 kHz / 1509 kbps / 24-bit)
                  DTS Audio French 768 kbps 5.1 / 48 kHz / 768 kbps / 24-bit
                  DTS Audio German 768 kbps 5.1 / 48 kHz / 768 kbps / 24-bit
                  DTS Audio Italian 768 kbps 5.1 / 48 kHz / 768 kbps / 24-bit
                  * DTS Audio Japanese 768 kbps 5.1 / 48 kHz / 768 kbps / 24-bit
                  DTS Audio Russian 768 kbps 5.1 / 48 kHz / 768 kbps / 24-bit
                  DTS Audio Spanish 768 kbps 5.1 / 48 kHz / 768 kbps / 24-bit
                  Dolby Digital Audio Czech 448 kbps 5.1 / 48 kHz / 448 kbps
                  Dolby Digital Audio Polish 448 kbps 5.1 / 48 kHz / 448 kbps
                  Dolby Digital Audio Portuguese 448 kbps 5.1 / 48 kHz / 448 kbps
                  Dolby Digital Audio Spanish 448 kbps 5.1 / 48 kHz / 448 kbps
                  Dolby Digital Audio Ukrainian 448 kbps 5.1 / 48 kHz / 448 kbps
                  Dolby Digital Audio English 224 kbps 2.0 / 48 kHz / 224 kbps
                  * Dolby Digital Audio English 224 kbps 2.0 / 48 kHz / 224 kbps
                  Dolby Digital Audio French 224 kbps 2.0 / 48 kHz / 224 kbps / Dolby Surround
                  Dolby Digital Audio Turkish 224 kbps 2.0 / 48 kHz / 224 kbps
                  SUBTITLES:
                  Codec Language Bitrate Description
                  ----- -------- ------- -----------
                  Presentation Graphics English 46,271 kbps
                  Presentation Graphics English 58,458 kbps
                  Presentation Graphics Chinese 41,083 kbps
                  Presentation Graphics Chinese 36,879 kbps
                  Presentation Graphics Croatian 34,458 kbps
                  Presentation Graphics Czech 37,030 kbps
                  Presentation Graphics Danish 34,835 kbps
                  Presentation Graphics Dutch 35,176 kbps
                  Presentation Graphics Finnish 34,851 kbps
                  Presentation Graphics French 33,706 kbps
                  Presentation Graphics French 0,517 kbps
                  Presentation Graphics French 45,855 kbps
                  Presentation Graphics German 54,485 kbps
                  Presentation Graphics German 61,727 kbps
                  Presentation Graphics Greek 40,686 kbps
                  Presentation Graphics Hebrew 32,224 kbps
                  Presentation Graphics Icelandic 38,784 kbps
                  Presentation Graphics Italian 45,186 kbps
                  * Presentation Graphics Japanese 27,916 kbps
                  * Presentation Graphics Japanese 0,318 kbps
                  Presentation Graphics Korean 31,656 kbps
                  Presentation Graphics Norwegian 37,873 kbps
                  Presentation Graphics Portuguese 37,698 kbps
                  Presentation Graphics Portuguese 44,579 kbps
                  Presentation Graphics Romanian 40,083 kbps
                  Presentation Graphics Russian 39,831 kbps
                  Presentation Graphics Slovenian 32,044 kbps
                  Presentation Graphics Spanish 37,247 kbps
                  Presentation Graphics Spanish 42,789 kbps
                  Presentation Graphics Swedish 31,512 kbps
                  Presentation Graphics Thai 39,813 kbps
                  Presentation Graphics Turkish 41,353 kbps
                  FILES:
                  Name Time In Length Size Total Bitrate
                  ---- ------- ------ ---- -------------
                  00201.M2TS 0:00:00.000 0:57:53.511 19 959 994 368 45 971
                  00208.M2TS 0:57:53.511 0:00:46.838 268 105 728 45 792
                  00203.M2TS 0:58:40.350 0:02:33.194 878 622 720 45 883
                  00209.M2TS 1:01:13.544 0:01:51.778 642 582 528 45 990
                  00205.M2TS 1:03:05.323 0:01:59.911 686 450 688 45 797
                  00210.M2TS 1:05:05.234 0:03:24.078 1 160 755 200 45 502
                  00207.M2TS 1:08:29.313 0:21:21.738 7 274 797 056 45 406
                  Name: 00800.MPLS
                  Length: 1:29:41 (h:m:s)
                  Size: 30 820 128 768 bytes
                  Total Bitrate: 45,82 Mbps
                  (*) Indicates included stream hidden by this playlist.
                  VIDEO:
                  Codec Bitrate Description
                  ----- ------- -----------
                  MPEG-4 AVC Video 29911 kbps 1080p / 23,976 fps / 16:9 / High Profile 4.1
                  AUDIO:
                  Codec Language Bitrate Description
                  ----- -------- ------- -----------
                  DTS-HD Master Audio English 4181 kbps 5.1 / 48 kHz / 4181 kbps / 24-bit (DTS Core: 5.1 / 48 kHz / 1509 kbps / 24-bit)
                  DTS Audio French 768 kbps 5.1 / 48 kHz / 768 kbps / 24-bit
                  DTS Audio German 768 kbps 5.1 / 48 kHz / 768 kbps / 24-bit
                  DTS Audio Italian 768 kbps 5.1 / 48 kHz / 768 kbps / 24-bit
                  * DTS Audio Japanese 768 kbps 5.1 / 48 kHz / 768 kbps / 24-bit
                  DTS Audio Russian 768 kbps 5.1 / 48 kHz / 768 kbps / 24-bit
                  DTS Audio Spanish 768 kbps 5.1 / 48 kHz / 768 kbps / 24-bit
                  Dolby Digital Audio Czech 448 kbps 5.1 / 48 kHz / 448 kbps
                  Dolby Digital Audio Polish 448 kbps 5.1 / 48 kHz / 448 kbps
                  Dolby Digital Audio Portuguese 448 kbps 5.1 / 48 kHz / 448 kbps
                  Dolby Digital Audio Spanish 448 kbps 5.1 / 48 kHz / 448 kbps
                  Dolby Digital Audio Ukrainian 448 kbps 5.1 / 48 kHz / 448 kbps
                  * Dolby Digital Audio English 224 kbps 2.0 / 48 kHz / 224 kbps
                  Dolby Digital Audio English 224 kbps 2.0 / 48 kHz / 224 kbps
                  Dolby Digital Audio French 224 kbps 2.0 / 48 kHz / 224 kbps / Dolby Surround
                  Dolby Digital Audio Turkish 224 kbps 2.0 / 48 kHz / 224 kbps
                  SUBTITLES:
                  Codec Language Bitrate Description
                  ----- -------- ------- -----------
                  Presentation Graphics English 46,297 kbps
                  * Presentation Graphics English 58,522 kbps
                  Presentation Graphics Chinese 41,148 kbps
                  Presentation Graphics Chinese 36,915 kbps
                  Presentation Graphics Croatian 34,477 kbps
                  Presentation Graphics Czech 37,035 kbps
                  Presentation Graphics Danish 34,815 kbps
                  Presentation Graphics Dutch 35,192 kbps
                  Presentation Graphics Finnish 34,941 kbps
                  Presentation Graphics French 33,719 kbps
                  Presentation Graphics French 0,414 kbps
                  * Presentation Graphics French 45,904 kbps
                  Presentation Graphics German 54,492 kbps
                  * Presentation Graphics German 61,793 kbps
                  Presentation Graphics Greek 40,734 kbps
                  Presentation Graphics Hebrew 32,232 kbps
                  Presentation Graphics Icelandic 38,816 kbps
                  Presentation Graphics Italian 45,231 kbps
                  * Presentation Graphics Japanese 27,938 kbps
                  * Presentation Graphics Japanese 0,318 kbps
                  Presentation Graphics Korean 31,675 kbps
                  Presentation Graphics Norwegian 37,855 kbps
                  Presentation Graphics Portuguese 37,708 kbps
                  Presentation Graphics Portuguese 44,613 kbps
                  Presentation Graphics Romanian 40,090 kbps
                  Presentation Graphics Russian 39,851 kbps
                  Presentation Graphics Slovenian 32,045 kbps
                  Presentation Graphics Spanish 37,265 kbps
                  Presentation Graphics Spanish 42,814 kbps
                  Presentation Graphics Swedish 31,462 kbps
                  Presentation Graphics Thai 39,848 kbps
                  Presentation Graphics Turkish 41,327 kbps
                  FILES:
                  Name Time In Length Size Total Bitrate
                  ---- ------- ------ ---- -------------
                  00201.M2TS 0:00:00.000 0:57:53.511 19 959 994 368 45 971
                  00202.M2TS 0:57:53.511 0:00:46.838 268 228 608 45 813
                  00203.M2TS 0:58:40.350 0:02:33.194 878 622 720 45 883
                  00204.M2TS 1:01:13.544 0:01:49.818 632 451 072 46 073
                  00205.M2TS 1:03:03.362 0:01:59.911 686 450 688 45 797
                  00206.M2TS 1:05:03.274 0:03:16.404 1 119 584 256 45 603
                  00207.M2TS 1:08:19.678 0:21:21.738 7 274 797 056 45 406

                  Скриншоты

                  Скачать .torrent

                  Скачать торрент-файл бесплатно и на максимальной скорости!

                  Как скачивать? · Что такое торрент? · Рейтинг и ограничения

                  !ВНИМАНИЕ!
                  Сайт не распространяет и не хранит электронные версии произведений, а занимается лишь лишь предоставлением доступа к создаваемому пользователями каталогу ссылок на торрент-файлы, которые содержат только списки хеш-сумм, убедительная просьба с жалобами обращаться напрямую к пользователю. Файлы для обмена на трекере предоставлены пользователями сайта, и администрация не несёт ответственности за их содержание. Просьба не заливать файлы, защищенные авторскими правами, а также файлы нелегального содержания!


                  _________________
                  [Профиль] [ЛС]
                  Показать сообщения:    
                  Ответить на тему

                  Текущее время: Сегодня, в 11:40

                  Часовой пояс: GMT + 2



                  Вы не можете начинать темы
                  Вы не можете отвечать на сообщения
                  Вы не можете редактировать свои сообщения
                  Вы не можете удалять свои сообщения
                  Вы не можете голосовать в опросах
                  Вы не можете прикреплять файлы к сообщениям
                  Вы не можете скачивать файлы