BitTorrentTracker PerecTracker.org
BitTorrentTracker PerecTracker.org
    
Регистрация  ·  Вход
 
 · 
Забыли пароль?

  • Безграничный Бэтмен: Хаос / Batman Unlimited: Monster Mayhem (Батч Лукич / Butch Lukic) [2015, США, мультфильм, фантастика, боевик, приключения, BDRip] DVO

    Ответить на тему
     
    Автор Сообщение

    Flirldrerve

    Создавать темы 12-Апр-2016 15:49

           

    [Цитировать]

    Безграничный Бэтмен: Хаос / Batman Unlimited: Monster Mayhem--Страна: США
    Жанр: мультфильм, фантастика, боевик, приключения
    Продолжительность: 01:20:12
    Год выпуска: 2015
    -Перевод: Профессиональный (двухголосый, закадровый)
    Субтитры: нет
    Режиссёр: Батч Лукич / Butch Lukic
    -В ролях:
    Трой Бэйкер, Дженелл Кокс, Брайан Т. Делани, Крис Диамантополос, Нил Дункан, Ричард Эпкар, Ноэль Фишер, Уилл Фридел, Юрий Ловенталь, Дэйв Митчелл
    -Описание:
    Команда из Бэтмена, Найтвинга, Киборга и Зеленой Стрелы противостоит Соломону Гранди, Глиноликому, Страшиле и Серебряной Банши. Возглавит шайку негодяев, конечно же, Джокер.
    -Релиз групп All Films и RG Torrents.ru-Сэмпл: https://www.sendspace.com/file/ll21wv-Качество: BDRip - Исходник (Спасибо -Azureus-)
    Формат: AVI
    Видео: 688x384 (1.79:1), 23.976 fps, XviD build 73 ~1094 kbps avg, 0.17 bit/pixel
    Аудио: 48 kHz, AC3 Dolby Digital, 2/0 (L,R) ch, ~192 kbps
    -

    Отчёт MediaInfo

    General
    Complete name : C:\Users\Максим\Desktop\Мои релизы\Batman.Unlimited.Monster.Mayhem.2015.BDRip.745.polkera.avi
    Format : AVI
    Format/Info : Audio Video Interleave
    File size : 744 MiB
    Duration : 1h 20mn
    Overall bit rate : 1 296 Kbps
    Writing application : VirtualDubMod 1.5.10.3 | www.virtualdub-fr.org || (build 2550/release)
    Writing library : VirtualDubMod build 2550/release
    Video
    Format : MPEG-4 Visual
    Format profile : Streaming Video@L1
    Format settings, BVOP : Yes
    Format settings, QPel : No
    Format settings, GMC : No warppoints
    Format settings, Matrix : Custom
    Codec ID : XVID
    Codec ID/Hint : XviD
    Duration : 1h 20mn
    Bit rate : 1 095 Kbps
    Width : 688 pixels
    Height : 384 pixels
    Display aspect ratio : 16/9
    Frame rate : 23.976 fps
    Resolution : 24 bits
    Colorimetry : 4:2:0
    Scan type : Progressive
    Bits/(Pixel*Frame) : 0.173
    Stream size : 628 MiB (84%)
    Writing library : XviD 73
    Audio
    Format : AC-3
    Format/Info : Audio Coding 3
    Codec ID : 2000
    Duration : 1h 20mn
    Bit rate mode : Constant
    Bit rate : 192 Kbps
    Channel(s) : 2 channels
    Channel positions : L R
    Sampling rate : 48.0 KHz
    Stream size : 110 MiB (15%)
    Alignment : Split accross interleaves
    Interleave, duration : 42 ms (1.00 video frame)
    Interleave, preload duration : 500 ms

    -

    Скриншоты

    -
    |
    Скачать .torrent

    Скачать торрент-файл бесплатно и на максимальной скорости!

    Как скачивать? · Что такое торрент? · Рейтинг и ограничения

    !ВНИМАНИЕ!
    Сайт не распространяет и не хранит электронные версии произведений, а занимается лишь лишь предоставлением доступа к создаваемому пользователями каталогу ссылок на торрент-файлы, которые содержат только списки хеш-сумм, убедительная просьба с жалобами обращаться напрямую к пользователю. Файлы для обмена на трекере предоставлены пользователями сайта, и администрация не несёт ответственности за их содержание. Просьба не заливать файлы, защищенные авторскими правами, а также файлы нелегального содержания!


    _________________
    [Профиль] [ЛС]
    Показать сообщения:    
    Ответить на тему

    Текущее время: Сегодня, в 07:15

    Часовой пояс: GMT + 2



    Вы не можете начинать темы
    Вы не можете отвечать на сообщения
    Вы не можете редактировать свои сообщения
    Вы не можете удалять свои сообщения
    Вы не можете голосовать в опросах
    Вы не можете прикреплять файлы к сообщениям
    Вы не можете скачивать файлы