Register  ·  Log in
Forgot password?

  • Безграничный Бэтмен: Хаос / Batman Unlimited: Monster Mayhem (Батч Лукич / Butch Lukic) [2015, США, мультфильм, фантастика, боевик, приключения, BDRip] DVO

    Reply to topic
    Author Message


    Post 12-Apr-2016 16:49



    Безграничный Бэтмен: Хаос / Batman Unlimited: Monster Mayhem--Страна: США
    Жанр: мультфильм, фантастика, боевик, приключения
    Продолжительность: 01:20:12
    Год выпуска: 2015
    -Перевод: Профессиональный (двухголосый, закадровый)
    Субтитры: нет
    Режиссёр: Батч Лукич / Butch Lukic
    -В ролях:
    Трой Бэйкер, Дженелл Кокс, Брайан Т. Делани, Крис Диамантополос, Нил Дункан, Ричард Эпкар, Ноэль Фишер, Уилл Фридел, Юрий Ловенталь, Дэйв Митчелл
    Команда из Бэтмена, Найтвинга, Киборга и Зеленой Стрелы противостоит Соломону Гранди, Глиноликому, Страшиле и Серебряной Банши. Возглавит шайку негодяев, конечно же, Джокер.
    -Релиз групп All Films и RGСэмпл:Качество: BDRip - Исходник (Спасибо -Azureus-)
    Формат: AVI
    Видео: 688x384 (1.79:1), 23.976 fps, XviD build 73 ~1094 kbps avg, 0.17 bit/pixel
    Аудио: 48 kHz, AC3 Dolby Digital, 2/0 (L,R) ch, ~192 kbps

    Отчёт MediaInfo

    Complete name : C:\Users\Максим\Desktop\Мои релизы\Batman.Unlimited.Monster.Mayhem.2015.BDRip.745.polkera.avi
    Format : AVI
    Format/Info : Audio Video Interleave
    File size : 744 MiB
    Duration : 1h 20mn
    Overall bit rate : 1 296 Kbps
    Writing application : VirtualDubMod | || (build 2550/release)
    Writing library : VirtualDubMod build 2550/release
    Format : MPEG-4 Visual
    Format profile : Streaming Video@L1
    Format settings, BVOP : Yes
    Format settings, QPel : No
    Format settings, GMC : No warppoints
    Format settings, Matrix : Custom
    Codec ID : XVID
    Codec ID/Hint : XviD
    Duration : 1h 20mn
    Bit rate : 1 095 Kbps
    Width : 688 pixels
    Height : 384 pixels
    Display aspect ratio : 16/9
    Frame rate : 23.976 fps
    Resolution : 24 bits
    Colorimetry : 4:2:0
    Scan type : Progressive
    Bits/(Pixel*Frame) : 0.173
    Stream size : 628 MiB (84%)
    Writing library : XviD 73
    Format : AC-3
    Format/Info : Audio Coding 3
    Codec ID : 2000
    Duration : 1h 20mn
    Bit rate mode : Constant
    Bit rate : 192 Kbps
    Channel(s) : 2 channels
    Channel positions : L R
    Sampling rate : 48.0 KHz
    Stream size : 110 MiB (15%)
    Alignment : Split accross interleaves
    Interleave, duration : 42 ms (1.00 video frame)
    Interleave, preload duration : 500 ms



    Download .torrent

    Download free and at maximum speed!

    How to Download? · What is a torrent? · Ratings and Limitations

    The site does not extend and does not store electronic(digital) versions of products, and only gives access to a reference catalogue created by users on torrent-files which contain only lists of the hash-sums, the earnest entreaty, with complaints(abuse) to access directly to the user. Files for an exchange on tracker are given by users of a site, and the administration does not bear the responsibility for their maintenance. The request to not fill in the files protected by copyrights, and also files of the illegal maintenance!

    [Profile] [PM]
    Display posts from previous:    
    Reply to topic

    The time now is: Today 11:27

    All times are GMT + 3 Hours

    You cannot post new topics in this forum
    You cannot reply to topics in this forum
    You cannot edit your posts in this forum
    You cannot delete your posts in this forum
    You cannot vote in polls in this forum
    You cannot attach files in this forum
    You cannot download files in this forum