BitTorrentTracker PerecTracker.org
BitTorrentTracker PerecTracker.org
    
Регистрация  ·  Вход
 
 · 
Забыли пароль?

  • LEGO Супергерои DC: Лига Справедливости - Космическая битва / DC Comics Super Heroes: Justice League - Cosmic Clash (Рик Моралес / Rick Morales) [2016, США, мультфильм, боевик, приключения, BDRip] DVO

    Ответить на тему
     
    Автор Сообщение

    Flirldrerve

    Создавать темы 12-Апр-2016 11:37

           

    [Цитировать]

    LEGO Супергерои DC: Лига Справедливости - Космическая битва / DC Comics Super Heroes: Justice League - Cosmic Clash--Страна: США
    Жанр: мультфильм, боевик, приключения
    Продолжительность: 01:18:32
    Год выпуска: 2016
    -Перевод: Профессиональный (двухголосый, закадровый)
    Субтитры: нет
    Режиссёры: Рик Моралес / Rick Morales
    -В ролях:
    Нолан Норт, Трой Бэйкер, Грэй Гриффин, Кари Уолгрен, Хари Пэйтон, Фил ЛаМарр, Джеймс Арнольд Тейлор, Юрий Ловенталь, Фил Моррис, Джошуа Китон
    -Описание:
    На маленькой симпатичной планете со смешным названием Заставикслю жизнь шла своим чередом, пока не произошло нечто странное: планету просканировали красным светом, после чего она сжалась, стала совсем крохотной и была помещена в стеклянную банку. Это сделал разумный робот Мозголом, владелец самой большой базы данных планет. У него уже собрана огромная коллекция, расставленная в алфавитном порядке, и в ней не хватало лишь планеты на букву З. Но произошла оплошность, и капсула с Заставикслю упала, из-за чего сама планета деформировалась. Мозголом недоволен – в его коллекции не может быть испорченных экземпляров. К его удовольствию, существует еще одна планета на З – Земля. И он решает во что бы то ни стало захватить ее. Его планам должна помешать команда лего-супергероев из Лиги Справедливости, в которую входят Бэтмен, Супермен, Чудо-Женщина, Зеленый Фонарь, Флэш и Киборг.
    -Релиз групп All Films и RG Torrents.ru-Сэмпл: https://www.sendspace.com/file/gk3ok0-Качество: BDRip - Исходник (Спасибо Shellters-bob)
    Формат: AVI
    Видео: 688x384 (1.79:1), 23.976 fps, XviD build 73 ~1121 kbps avg, 0.18 bit/pixel
    Аудио: 48 kHz, AC3 Dolby Digital, 2/0 (L,R) ch, ~192 kbps
    -

    Отчёт MediaInfo

    General
    Complete name : C:\Users\Максим\Desktop\Мои релизы\LEGO.Justice.League.Cosmic.Clash.2016.BDRip.745.polkera.avi
    Format : AVI
    Format/Info : Audio Video Interleave
    File size : 743 MiB
    Duration : 1h 18mn
    Overall bit rate : 1 323 Kbps
    Writing application : VirtualDubMod 1.5.10.3 | www.virtualdub-fr.org || (build 2550/release)
    Writing library : VirtualDubMod build 2550/release
    Video
    Format : MPEG-4 Visual
    Format profile : Streaming Video@L1
    Format settings, BVOP : Yes
    Format settings, QPel : No
    Format settings, GMC : No warppoints
    Format settings, Matrix : Custom
    Codec ID : XVID
    Codec ID/Hint : XviD
    Duration : 1h 18mn
    Bit rate : 1 122 Kbps
    Width : 688 pixels
    Height : 384 pixels
    Display aspect ratio : 16/9
    Frame rate : 23.976 fps
    Resolution : 24 bits
    Colorimetry : 4:2:0
    Scan type : Progressive
    Bits/(Pixel*Frame) : 0.177
    Stream size : 630 MiB (85%)
    Writing library : XviD 73
    Audio
    Format : AC-3
    Format/Info : Audio Coding 3
    Codec ID : 2000
    Duration : 1h 18mn
    Bit rate mode : Constant
    Bit rate : 192 Kbps
    Channel(s) : 2 channels
    Channel positions : L R
    Sampling rate : 48.0 KHz
    Stream size : 108 MiB (14%)
    Alignment : Split accross interleaves
    Interleave, duration : 42 ms (1.00 video frame)
    Interleave, preload duration : 500 ms

    -

    Скриншоты

    -
    |
    Скачать .torrent

    Скачать торрент-файл бесплатно и на максимальной скорости!

    Как скачивать? · Что такое торрент? · Рейтинг и ограничения

    !ВНИМАНИЕ!
    Сайт не распространяет и не хранит электронные версии произведений, а занимается лишь лишь предоставлением доступа к создаваемому пользователями каталогу ссылок на торрент-файлы, которые содержат только списки хеш-сумм, убедительная просьба с жалобами обращаться напрямую к пользователю. Файлы для обмена на трекере предоставлены пользователями сайта, и администрация не несёт ответственности за их содержание. Просьба не заливать файлы, защищенные авторскими правами, а также файлы нелегального содержания!


    _________________
    [Профиль] [ЛС]
    Показать сообщения:    
    Ответить на тему

    Текущее время: Сегодня, в 04:17

    Часовой пояс: GMT + 2



    Вы не можете начинать темы
    Вы не можете отвечать на сообщения
    Вы не можете редактировать свои сообщения
    Вы не можете удалять свои сообщения
    Вы не можете голосовать в опросах
    Вы не можете прикреплять файлы к сообщениям
    Вы не можете скачивать файлы