BitTorrentTracker PerecTracker.org
BitTorrentTracker PerecTracker.org
    
Регистрация  ·  Вход
 
 · 
Забыли пароль?

  • Альфа и Омега 5: Семейный отдых / Alpha and Omega 5: Family Vacation (Ричард Рич / Richard Rich) [2015, США, мультфильм, комедия, приключения, семейный, WEB-DLRip] Dub (SDI Media)

    Ответить на тему
     
    Автор Сообщение

    Flirldrerve

    Создавать темы 12-Апр-2016 11:37

           

    [Цитировать]

    Альфа и Омега 5: Семейный отдых / Alpha and Omega 5: Family Vacation

    Страна: США
    Жанр: мультфильм, комедия, приключения, семейный
    Продолжительность: 00:43:29
    Год выпуска: 2015
    Перевод: Профессиональный (дублированный) - SDI Media
    Русские субтитры: нет

    Режиссёр: Ричард Рич / Richard Rich
    Роли озвучивали: Бен Дискин, Кейт Хиггинс, Блэки Роуз, Линдсей Торренс, Лиза Уэст, Трэйси Пфау, Бил Лэйдер, Шон Жерардо
    Описание: Кейт и Хамфри ведут своих щенков на их первый семейный отдых! Волки готовы для спокойного отдыха в Альфред-Крик-Фолс - пока они не обнаружили, что охотники напали на их след. Перехитрить охотников и добраться до безопасного места, Кейт и Хамфри понадобится помощь диких и прекрасных групп друзей животных в этой незабываемой истории семейного единения.--За исходник спасибо [url=profile.php?mode=viewprofile&u=15251039]Alukarrraaa[/url]
    - Работа с WEB-DL [url=profile.php?mode=viewprofile&u=6758562]-Azureus-[/url]
    эта американская версия отличается от русского дубляжа, из дубляжа пришлось вырезать лишние эпизоды, что бы подогнать дорожку.-
    -
    -Качество: WEB-DLRip
    Формат: AVI
    Видео: 720x400 (1.80:1), 23.976 fps, XviD build 73 ~2186 kbps avg, 0.32 bit/pixel
    Аудио: 48 kHz, AC3 Dolby Digital, 2/0 (L,R) ch, ~192 kbps
    Субтитры: отсутствуют

    Подробные технические данные

    ОбщееПолное имя : H:\Alpha.and.Omega.5_Family.Vacation.2015.web.dlrip_[745]_[teko].aviФормат : AVIФормат/Информация : Audio Video InterleaveРазмер файла : 743 МбайтПродолжительность : 43 м.Общий поток : 2388 Кбит/секПрограмма кодирования : VirtualDubMod 1.5.10.3 | www.virtualdub-fr.org || (build 2550/release)Библиотека кодирования : VirtualDubMod build 2550/release
    ВидеоИдентификатор : 0Формат : MPEG-4 VisualПрофиль формата : Advanced Simple@L5Параметр BVOP формата : 2Параметр QPel формата : НетПараметр GMC формата : Без точки переходаПараметр матрицы формата : ВыборочнаяИдентификатор кодека : XVIDИдентификатор кодека/Подсказка : XviDПродолжительность : 43 м.Битрейт : 2187 Кбит/секШирина : 720 пикселейВысота : 400 пикселейСоотношение сторон : 16:9Частота кадров : 23,976 кадра/секЦветовое пространство : YUVСубдискретизация насыщенности : 4:2:0Битовая глубина : 8 битТип развёртки : ПрогрессивнаяМетод сжатия : С потерямиБит/(Пиксели*Кадры) : 0.317Размер потока : 680 Мбайт (92%)Библиотека кодирования : XviD 73
    АудиоИдентификатор : 1Формат : AC-3Формат/Информация : Audio Coding 3Расширение режима : CM (complete main)Параметр Endianness формата : BigИдентификатор кодека : 2000Продолжительность : 43 м.Вид битрейта : ПостоянныйБитрейт : 192 Кбит/секКаналы : 2 каналаРасположение каналов : Front: L RЧастота : 48,0 КГцБитовая глубина : 16 битМетод сжатия : С потерямиРазмер потока : 59,7 Мбайт (8%)Выравнивание : Разделение по промежуткамПродолжительность промежутка : 42 мс. (1,00 видеокадр)Время предзагрузки промежутка : 500 мс.

    Скриншоты

    Релиз группы:

    -
    -
    Скачать .torrent

    Скачать торрент-файл бесплатно и на максимальной скорости!

    Как скачивать? · Что такое торрент? · Рейтинг и ограничения

    !ВНИМАНИЕ!
    Сайт не распространяет и не хранит электронные версии произведений, а занимается лишь лишь предоставлением доступа к создаваемому пользователями каталогу ссылок на торрент-файлы, которые содержат только списки хеш-сумм, убедительная просьба с жалобами обращаться напрямую к пользователю. Файлы для обмена на трекере предоставлены пользователями сайта, и администрация не несёт ответственности за их содержание. Просьба не заливать файлы, защищенные авторскими правами, а также файлы нелегального содержания!


    _________________
    [Профиль] [ЛС]
    Показать сообщения:    
    Ответить на тему

    Текущее время: Сегодня, в 14:37

    Часовой пояс: GMT + 2



    Вы не можете начинать темы
    Вы не можете отвечать на сообщения
    Вы не можете редактировать свои сообщения
    Вы не можете удалять свои сообщения
    Вы не можете голосовать в опросах
    Вы не можете прикреплять файлы к сообщениям
    Вы не можете скачивать файлы