BitTorrentTracker PerecTracker.org
BitTorrentTracker PerecTracker.org
    
Регистрация  ·  Вход
 
 · 
Забыли пароль?

  • Барби и щенки в поисках сокровищ / Barbie & Her Sisters in the Great Puppy Adventure (Эндрю Тэн / Andrew Tan) [2015, США, мультфильм, приключения, семейный, BDRip] Dub

    Ответить на тему
     
    Автор Сообщение

    Flirldrerve

    Создавать темы 12-Апр-2016 03:24

           

    [Цитировать]

    Барби и щенки в поисках сокровищ / Barbie & Her Sisters in the Great Puppy Adventure--Страна: США
    Жанр: мультфильм, приключения, семейный
    Продолжительность: 01:15:09
    Год выпуска: 2015
    -Перевод: Профессиональный (дублированный)
    Субтитры: нет
    Режиссёр: Эндрю Тэн / Andrew Tan
    -В ролях:
    Челси Миллер, Морган Тейлор Кэмпбелл, Майкл Дэйнджерфилд, Тейлор Дайян Робинсон, Алисия Суэйлс
    -Описание:
    Барби с сёстрами и их очаровательные щенки отправляются на охоту за древними сокровищами.
    Однажды летом Барби и её сестры Скиппер, Стейси и Челси приезжают погостить к бабушке. Девочек ждет сюрприз: недавно у бабушкиной собаки родились чудесные щенки, и каждая из сестер выбирает себе любимца. Играя в прятки на чердаке, щенки находят старую карту и приносят ее девочкам. Бабушка рассказывает внучкам, что карта может привести их к давно потерянным сокровищам, спрятанным где-то в городе.
    Сёстры, а вместе с ними и четверо любопытных щенков, отправляются на захватывающие поиски сокровищ! Во время своего путешествия они поймут, что величайшие сокровища на земле — это любовь и радость, которыми они делятся друг с другом.
    -Релиз групп All Films и RG Torrents.ru-Сэмпл: https://www.sendspace.com/file/jomt8i-Качество: BDRip - Исходник (Спасибо -Azureus-)
    Формат: AVI
    Видео: 656x368 (1.78:1), 23.976 fps, XviD build 73 ~1180 kbps avg, 0.20 bit/pixel
    Аудио: 48 kHz, AC3 Dolby Digital, 2/0 (L,R) ch, ~192 kbps
    -

    Отчёт MediaInfo

    General
    Complete name : C:\Users\Максим\Desktop\Barbie.Great.Puppy.Adventurer.2015.BDRip.745.polkera.avi
    Format : AVI
    Format/Info : Audio Video Interleave
    File size : 743 MiB
    Duration : 1h 15mn
    Overall bit rate : 1 382 Kbps
    Writing application : VirtualDubMod 1.5.10.3 | www.virtualdub-fr.org || (build 2550/release)
    Writing library : VirtualDubMod build 2550/release
    Video
    Format : MPEG-4 Visual
    Format profile : Streaming Video@L1
    Format settings, BVOP : Yes
    Format settings, QPel : No
    Format settings, GMC : No warppoints
    Format settings, Matrix : Custom
    Codec ID : XVID
    Codec ID/Hint : XviD
    Duration : 1h 15mn
    Bit rate : 1 181 Kbps
    Width : 656 pixels
    Height : 368 pixels
    Display aspect ratio : 16/9
    Frame rate : 23.976 fps
    Resolution : 24 bits
    Colorimetry : 4:2:0
    Scan type : Progressive
    Bits/(Pixel*Frame) : 0.204
    Stream size : 635 MiB (85%)
    Writing library : XviD 73
    Audio
    Format : AC-3
    Format/Info : Audio Coding 3
    Codec ID : 2000
    Duration : 1h 15mn
    Bit rate mode : Constant
    Bit rate : 192 Kbps
    Channel(s) : 2 channels
    Channel positions : L R
    Sampling rate : 48.0 KHz
    Stream size : 103 MiB (14%)
    Alignment : Split accross interleaves
    Interleave, duration : 42 ms (1.00 video frame)
    Interleave, preload duration : 500 ms

    -

    Скриншоты

    -
    |
    Скачать .torrent

    Скачать торрент-файл бесплатно и на максимальной скорости!

    Как скачивать? · Что такое торрент? · Рейтинг и ограничения

    !ВНИМАНИЕ!
    Сайт не распространяет и не хранит электронные версии произведений, а занимается лишь лишь предоставлением доступа к создаваемому пользователями каталогу ссылок на торрент-файлы, которые содержат только списки хеш-сумм, убедительная просьба с жалобами обращаться напрямую к пользователю. Файлы для обмена на трекере предоставлены пользователями сайта, и администрация не несёт ответственности за их содержание. Просьба не заливать файлы, защищенные авторскими правами, а также файлы нелегального содержания!


    _________________
    [Профиль] [ЛС]
    Показать сообщения:    
    Ответить на тему

    Текущее время: Сегодня, в 19:57

    Часовой пояс: GMT + 2



    Вы не можете начинать темы
    Вы не можете отвечать на сообщения
    Вы не можете редактировать свои сообщения
    Вы не можете удалять свои сообщения
    Вы не можете голосовать в опросах
    Вы не можете прикреплять файлы к сообщениям
    Вы не можете скачивать файлы