BitTorrentTracker PerecTracker.org
BitTorrentTracker PerecTracker.org
    
Регистрация  ·  Вход
 
 · 
Забыли пароль?

  • Невозможное / Lo imposible / The Impossible (Хуан Антонио Байона / Juan Antonio Bayona) [2012, США, Драма, BDRip] Dub

    Ответить на тему
     
    Автор Сообщение

    Light

    Создавать темы 11-Апр-2016 23:12

           

    [Цитировать]

    Невозможное / Lo imposible / The Impossible
    «Ничто не может сломить человеческий дух»
    -Год выпуска: 2012
    Выпущено: Испания, США / Apaches Entertainment
    Жанр: драма
    Продолжительность: 01:53:42
    Перевод: Профессиональный (полное дублирование) R5 |Лицензия|
    Cубтитры: нет-Режиссер:
    Хуан Антонио Байона / Juan Antonio Bayona-В ролях:
    Наоми Уоттс (Maria), Юэн МакГрегор (Henry), Том Холланд (Lucas), Сэмюэл Джослин (Thomas), Окли Пендергаст (Simon), Марта Этура (Simone), Шенке Мёринг (Karl), Джеральдин Чаплин (Old Woman), Плой Хиндачоте (Caregiver), Жомжаои Сэ-Лим (Red Cross Nurse), Йохан Сандберг (Daniel)-Описание:
    Лента о событиях, разворачивающихся на фоне цунами 2004 года.-Релиз групп
    | | IMDB | КиноПоиск | Сэмпл |-Тип релиза: BDRip [BDRemux | 1080p | BLUEBIRD | USA Transfer]
    Контейнер: AVI
    Видео: 720x304 (2.37:1), 23.976 fps, XviD build 67 ~1381 kbps avg, 0.26 bit/pixel
    Аудио: 48 kHz, AC3 Dolby Digital, 3/2 (L,C,R,l,r) + LFE ch, ~448.00 kbps avg-

    Скриншоты

    -

    MediaInfo

    General
    Complete name                            : D:\Nevozmozhnoe_2012_BDRip_by_Dalemake.avi
    Format                                   : AVI
    Format/Info                              : Audio Video Interleave
    File size                                : 1.46 GiB
    Duration                                 : 1h 53mn
    Overall bit rate                         : 1 839 Kbps
    Writing application                      : VirtualDubMod 1.5.10.3 | www.virtualdub-fr.org || (build 2550/release)
    Writing library                          : VirtualDubMod build 2550/release
    Video
    ID                                       : 0
    Format                                   : MPEG-4 Visual
    Format profile                           : Advanced Simple@L5
    Format settings, BVOP                    : 1
    Format settings, QPel                    : No
    Format settings, GMC                     : No warppoints
    Format settings, Matrix                  : Custom
    Codec ID                                 : XVID
    Codec ID/Hint                            : XviD
    Duration                                 : 1h 53mn
    Bit rate                                 : 1 382 Kbps
    Width                                    : 720 pixels
    Height                                   : 304 pixels
    Display aspect ratio                     : 2.35:1
    Frame rate                               : 23.976 (23976/1000) fps
    Color space                              : YUV
    Chroma subsampling                       : 4:2:0
    Bit depth                                : 8 bits
    Scan type                                : Progressive
    Compression mode                         : Lossy
    Bits/(Pixel*Frame)                       : 0.263
    Stream size                              : 1.10 GiB (75%)
    Writing library                          : XviD 67
    Audio
    ID                                       : 1
    Format                                   : AC-3
    Format/Info                              : Audio Coding 3
    Mode extension                           : CM (complete main)
    Format settings, Endianness              : Big
    Codec ID                                 : 2000
    Duration                                 : 1h 53mn
    Bit rate mode                            : Constant
    Bit rate                                 : 448 Kbps
    Channel(s)                               : 6 channels
    Channel positions                        : Front: L C R, Side: L R, LFE
    Sampling rate                            : 48.0 KHz
    Frame rate                               : 31.250 fps (1536 spf)
    Compression mode                         : Lossy
    Stream size                              : 364 MiB (24%)
    Alignment                                : Split accross interleaves
    Interleave, duration                     : 42 ms (1.00 video frame)
    Interleave, preload duration             : 500 ms
    -
    Скачать .torrent

    Скачать торрент-файл бесплатно и на максимальной скорости!

    Как скачивать? · Что такое торрент? · Рейтинг и ограничения

    !ВНИМАНИЕ!
    Сайт не распространяет и не хранит электронные версии произведений, а занимается лишь лишь предоставлением доступа к создаваемому пользователями каталогу ссылок на торрент-файлы, которые содержат только списки хеш-сумм, убедительная просьба с жалобами обращаться напрямую к пользователю. Файлы для обмена на трекере предоставлены пользователями сайта, и администрация не несёт ответственности за их содержание. Просьба не заливать файлы, защищенные авторскими правами, а также файлы нелегального содержания!


    _________________
    [Профиль] [ЛС]
    Показать сообщения:    
    Ответить на тему

    Текущее время: Сегодня, в 02:41

    Часовой пояс: GMT + 2



    Вы не можете начинать темы
    Вы не можете отвечать на сообщения
    Вы не можете редактировать свои сообщения
    Вы не можете удалять свои сообщения
    Вы не можете голосовать в опросах
    Вы не можете прикреплять файлы к сообщениям
    Вы не можете скачивать файлы