BitTorrentTracker PerecTracker.org
BitTorrentTracker PerecTracker.org
    
Регистрация  ·  Вход
 
 · 
Забыли пароль?

  • Скандальная леди У / The Scandalous Lady W (Шери Фоксон / Sheree Folkson) [2015, Великобритания, драма, история, HDTVRip] DVO (SDI Media)

    Ответить на тему
     
    Автор Сообщение

    Light

    Создавать темы 11-Апр-2016 23:12

           

    [Цитировать]

    Скандальная леди У / The Scandalous Lady W
    Страна: Великобритания
    Жанр: драма, история
    Год выпуска: 2015
    Продолжительность: 01:27:35
    Перевод: Профессиональный (двухголосый закадровый) - SDI Media
    Cубтитры: нет
    Оригинальная аудиодорожка: нет-Режиссер: Шери Фоксон / Sheree Folkson-В ролях: Натали Дормер, Анейрин Барнард, Шон Эванс, Крэйг Паркинсон, Ричард МакКейб, Дэвид Колдер, Джессика Ганнинг, Питер Салливан, Оливер Крис, Том Эдден...-Описание: Драма про скандальную англичанку Сеймур Дороти Флеминг, которая потрясла общество XVIII века своей распущенностью, рекордным количеством измен мужу и громким бракоразводным процессом.-
    -Качество видео: HDTVRip
    Формат видео: AVI
    Видео: 656x368 (1.78:1), 25 fps, XviD build 73 ~1049 kbps avg, 0.17 bit/pixel
    Аудио: 48 kHz, MPEG Layer 3, 2 ch, ~128.00 kbps avg-Сэмпл

    MediaInfo

    Format                      : AVI
    Format/Info                 : Audio Video Interleave
    File size                   : 744 MiB
    Duration                    : 1h 27mn
    Overall bit rate            : 1 188 Kbps
    Writing application         : VirtualDubMod 1.5.10.3 | www.virtualdub-fr.org || (build 2550/release)
    Writing library             : VirtualDubMod build 2550/release
    Video
    ID                          : 0
    Format                      : MPEG-4 Visual
    Format profile              : Advanced Simple@L5
    Format settings, BVOP       : 1
    Format settings, QPel       : No
    Format settings, GMC        : No warppoints
    Format settings, Matrix     : Default (MPEG)
    Codec ID                    : XVID
    Codec ID/Hint               : XviD
    Duration                    : 1h 27mn
    Bit rate                    : 1 050 Kbps
    Width                       : 656 pixels
    Height                      : 368 pixels
    Display aspect ratio        : 16:9
    Frame rate                  : 25.000 fps
    Color space                 : YUV
    Chroma subsampling          : 4:2:0
    Bit depth                   : 8 bits
    Scan type                   : Progressive
    Compression mode            : Lossy
    Bits/(Pixel*Frame)          : 0.174
    Stream size                 : 658 MiB (88%)
    Writing library             : XviD 73
    Audio
    ID                          : 1
    Format                      : MPEG Audio
    Format version              : Version 1
    Format profile              : Layer 3
    Codec ID                    : 55
    Codec ID/Hint               : MP3
    Duration                    : 1h 27mn
    Bit rate mode               : Constant
    Bit rate                    : 128 Kbps
    Channel(s)                  : 2 channels
    Sampling rate               : 48.0 KHz
    Compression mode            : Lossy
    Stream size                 : 80.2 MiB (11%)
    Alignment                   : Aligned on interleaves
    Interleave, duration        : 40 ms (1.00 video frame)
    Interleave, preload duratio : 504 ms
    Writing library             : LAME3.99r
    Encoding settings           : -m s -V 4 -q 2 -lowpass 17 -b 128

    Скриншоты

    Скачать .torrent

    Скачать торрент-файл бесплатно и на максимальной скорости!

    Как скачивать? · Что такое торрент? · Рейтинг и ограничения

    !ВНИМАНИЕ!
    Сайт не распространяет и не хранит электронные версии произведений, а занимается лишь лишь предоставлением доступа к создаваемому пользователями каталогу ссылок на торрент-файлы, которые содержат только списки хеш-сумм, убедительная просьба с жалобами обращаться напрямую к пользователю. Файлы для обмена на трекере предоставлены пользователями сайта, и администрация не несёт ответственности за их содержание. Просьба не заливать файлы, защищенные авторскими правами, а также файлы нелегального содержания!


    _________________
    [Профиль] [ЛС]
    Показать сообщения:    
    Ответить на тему

    Текущее время: Сегодня, в 20:02

    Часовой пояс: GMT + 2



    Вы не можете начинать темы
    Вы не можете отвечать на сообщения
    Вы не можете редактировать свои сообщения
    Вы не можете удалять свои сообщения
    Вы не можете голосовать в опросах
    Вы не можете прикреплять файлы к сообщениям
    Вы не можете скачивать файлы