BitTorrentTracker PerecTracker.org
BitTorrentTracker PerecTracker.org
    
Регистрация  ·  Вход
 
 · 
Забыли пароль?

  • Карьер / The Carrier (Энтони Вудли / Anthony Woodley) [2015, Великобритания, фантастика, боевик, триллер, WEB-DLRip] DVO + Original Eng

    Ответить на тему
     
    Автор Сообщение

    Light

    Создавать темы 11-Апр-2016 23:12

           

    [Цитировать]

    Карьер / The Carrier--
    Жанр: фантастика, боевик, триллер
    Страна: Великобритания
    Год выхода: 2015
    Продолжительность: 01:28:26-Перевод: Любительский (двухголосый)
    Оригинальная аудиодорожка: английский
    Cубтитры: нет
    Режиссер: Энтони Вудли / Anthony Woodley-В ролях: Джек Гордон, Джо Диксон, Эдмунд Кингсли, Жозефин Тэйлор, Карен Брайсон, Люси-Джейн Куинлэн, Джеймс Пэйтон, Ребекка Джонсон, Зора Бишоп, Люк Хили-Описание: Мир окончательно сошёл с ума, неведомый вирус стёр Лондон с лица земли и распространяется по всей планете. Лондон охвачен паникой и волной террора, спецназ без промедления уничтожает всех разносчиков вируса, хотя эта мера совершенно не помогает, поэтому, махнув рукой на спасение цивилизации, люди просто убивают друг друга. Кучка выживших пытается прорваться в заповедную зелёную зону, карантин где-то на севере континента, хотя особой уверенности, что незараженные территории ещё остались, нет. Аварийная посадка на удалённом от столицы аэродроме, становится очередной пробой на прочность для напуганных людей, которых становится всё меньше. А те, кто ещё жив и не заражён, полны злобы и ненависти.-Дополнительная информация: Релиз без рекламы.-Семпл: http://multi-up.com/1097068
    Качество видео: WEB-DLRip
    Формат файла: AVI-Видео: 720x304 (2,35:1), 24,000 fps, XviD 66 ~1819 kbps avg, 0.346 bit/pixel
    Аудио #1: Russian: 48 kHz, AC3, 2 ch, ~192.00 kbps avg
    Аудио #2: English: 48 kHz, AC3, 2 ch, ~192.00 kbps avg-

    MediaInfo

    Общее
    Полное имя : D:\скачано\The.Carrier.2016.L2.WEB-DLRip.avi
    Формат : AVI
    Формат/Информация : Audio Video Interleave
    Размер файла : 1,37 Гбайт
    Продолжительность : 1 ч. 28 м.
    Общий поток : 2217 Кбит/сек
    Видео
    Идентификатор : 0
    Формат : MPEG-4 Visual
    Профиль формата : Advanced Simple@L5
    Параметр BVOP формата : 2
    Параметр QPel формата : Нет
    Параметр GMC формата : Без точки перехода
    Параметр матрицы формата : Default (H.263)
    Идентификатор кодека : XVID
    Идентификатор кодека/Подсказка : XviD
    Продолжительность : 1 ч. 28 м.
    Битрейт : 1819 Кбит/сек
    Ширина : 720 пикс.
    Высота : 304 пикс.
    Соотношение сторон : 2,35:1
    Частота кадров : 24,000 кадр/сек
    Цветовое пространство : YUV
    Подвыборка цветности : 4:2:0
    Битовая глубина : 8 бит
    Тип развёртки : Прогрессивная
    Метод сжатия : С потерями
    Бит/(Пиксели*Кадры) : 0.346
    Размер потока : 1,12 Гбайт (82%)
    Библиотека кодирования : XviD 66
    Аудио #1
    Идентификатор : 1
    Формат : AC-3
    Формат/Информация : Audio Coding 3
    Расширение режима : CM (complete main)
    Идентификатор кодека : 2000
    Продолжительность : 1 ч. 28 м.
    Вид битрейта : Постоянный
    Битрейт : 192 Кбит/сек
    Каналы : 2 канала
    Расположение каналов : Front: L R
    Частота : 48,0 КГц
    Битовая глубина : 16 бит
    Метод сжатия : С потерями
    Размер потока : 121 Мбайт (9%)
    Выравнивание : Разделение по промежуткам
    Продолжительность промежутка : 42 мс. (1,00 видеокадр)
    Время предзагрузки промежутка : 500 ms
    Аудио #2
    Идентификатор : 2
    Формат : AC-3
    Формат/Информация : Audio Coding 3
    Расширение режима : CM (complete main)
    Идентификатор кодека : 2000
    Продолжительность : 1 ч. 28 м.
    Вид битрейта : Постоянный
    Битрейт : 192 Кбит/сек
    Каналы : 2 канала
    Расположение каналов : Front: L R
    Частота : 48,0 КГц
    Битовая глубина : 16 бит
    Метод сжатия : С потерями
    Размер потока : 121 Мбайт (9%)
    Выравнивание : Разделение по промежуткам
    Продолжительность промежутка : 42 мс. (1,00 видеокадр)
    Время предзагрузки промежутка : 500 ms

    Скриншот с названием

    Скриншоты

    Скачать .torrent

    Скачать торрент-файл бесплатно и на максимальной скорости!

    Как скачивать? · Что такое торрент? · Рейтинг и ограничения

    !ВНИМАНИЕ!
    Сайт не распространяет и не хранит электронные версии произведений, а занимается лишь лишь предоставлением доступа к создаваемому пользователями каталогу ссылок на торрент-файлы, которые содержат только списки хеш-сумм, убедительная просьба с жалобами обращаться напрямую к пользователю. Файлы для обмена на трекере предоставлены пользователями сайта, и администрация не несёт ответственности за их содержание. Просьба не заливать файлы, защищенные авторскими правами, а также файлы нелегального содержания!


    _________________
    [Профиль] [ЛС]
    Показать сообщения:    
    Ответить на тему

    Текущее время: Сегодня, в 14:25

    Часовой пояс: GMT + 2



    Вы не можете начинать темы
    Вы не можете отвечать на сообщения
    Вы не можете редактировать свои сообщения
    Вы не можете удалять свои сообщения
    Вы не можете голосовать в опросах
    Вы не можете прикреплять файлы к сообщениям
    Вы не можете скачивать файлы