BitTorrentTracker PerecTracker.org
BitTorrentTracker PerecTracker.org
    
Регистрация  ·  Вход
 
 · 
Забыли пароль?

  • Отец Браун / Патер Браун / Father Brown / Сезон: 4 / Серии: 1-10 из 10 (Пол Гибсон, Мэтт Картер, Йен Барбер) [2016, Детектив, драма, HDTVRip] DVO (DexterTV) + VO (DexterTV)

    Ответить на тему
     
    Автор Сообщение

    rechyn

    Создавать темы 11-Апр-2016 21:49

           

    [Цитировать]

    Отец Браун / Патер Браун / Father Brown
    ПОЛНЫЙ 4 СЕЗОН-Озвучено при поддержке фанатов сериала!--

    Год выпуска: 2016
    Страна: Великобритания, British Broadcasting Corporation
    Жанр: Детектив, драма
    Продолжительность: ~ 00:45:00
    Перевод #1: Любительский (одноголосый закадровый) DexterTV (1-3,5-6 серия) по тексту Натальи Клюевой
    Перевод #2: Любительский (двухголосый закадровый) DexterTV (4 серия)
    Режиссёр: Пол Гибсон, Мэтт Картер, Йен Барбер
    В ролях: Марк Уильямс, Нэнси Кэролл, Сорча Кьюсак, Хьюго Спир, Алекс Прайс, Том Чамберс, Джон Лайт, Джон Бертон, Кит Осборн, Джеймс Расталл, Джастин Эдвардс, Дэвид Колдер, Кэти Льюнг и др.
    Описание: Британский сериал снят по мотивам рассказов классика детективного жанра Гилберта Кейта Честертона. Отец Браун (Марк Уильямс) – священник с ничем не примечательной внешностью, но острым, как бритва, умом и поразительным умением разбираться в психологии человека. Именно эти качества помогают ему разбираться в преступлениях, которые время от времени происходят в одном тихом уголке Англии середины 1950-х годов.
    Ссылка на предыдущие и альтернативные раздачи | Сэмпл
    Качество: HDTVRip
    Формат: AVI
    Видео: XviD, 720x400, 25 fps, 1370 kbps, 0.190 bit/pixel
    Аудио: MP3, 48 kHz, 2 ch, 192 kbps
    Субтитры: отсутствуют

    Список серий

    01. Маска Демона
    02. Дочь пивовара
    03. Смерть палача
    04. Безумец империи
    05. Дочь Автолика
    06. Жезл Асклепия
    07. Пропавший
    08. Воскресший
    09. Грехи отца
    10. Гнев Барона Субботы

    MediaInfo

    Format : AVI
    Format/Info : Audio Video Interleave
    File size : 501 MiB
    Duration : 44mn 35s
    Overall bit rate : 1 572 Kbps
    Writing application : VirtualDubMod 1.5.10.3 | www.virtualdub-fr.org || (build 2550/release)
    Writing library : VirtualDub build 35576/release
    Video
    ID : 0
    Format : MPEG-4 Visual
    Format profile : Advanced Simple@L5
    Format settings, BVOP : 1
    Format settings, QPel : No
    Format settings, GMC : No warppoints
    Format settings, Matrix : Default (MPEG)
    Codec ID : XVID
    Codec ID/Hint : XviD
    Duration : 44mn 35s
    Bit rate : 1 370 Kbps
    Width : 720 pixels
    Height : 400 pixels
    Display aspect ratio : 16:9
    Frame rate : 25.000 fps
    Color space : YUV
    Chroma subsampling : 4:2:0
    Bit depth : 8 bits
    Scan type : Progressive
    Compression mode : Lossy
    Bits/(Pixel*Frame) : 0.190
    Stream size : 437 MiB (87%)
    Writing library : XviD 1.2.1 (UTC 2008-12-04)
    Audio
    ID : 1
    Format : MPEG Audio
    Format version : Version 1
    Format profile : Layer 3
    Mode : Joint stereo
    Codec ID : 55
    Codec ID/Hint : MP3
    Duration : 44mn 35s
    Bit rate mode : Constant
    Bit rate : 192 Kbps
    Channel(s) : 2 channels
    Sampling rate : 48.0 KHz
    Compression mode : Lossy
    Stream size : 61.2 MiB (12%)
    Alignment : Split accross interleaves
    Interleave, duration : 40 ms (1.00 video frame)
    Interleave, preload duratio : 500 ms

    Скриншоты

    Скачать .torrent

    Скачать торрент-файл бесплатно и на максимальной скорости!

    Как скачивать? · Что такое торрент? · Рейтинг и ограничения

    !ВНИМАНИЕ!
    Сайт не распространяет и не хранит электронные версии произведений, а занимается лишь лишь предоставлением доступа к создаваемому пользователями каталогу ссылок на торрент-файлы, которые содержат только списки хеш-сумм, убедительная просьба с жалобами обращаться напрямую к пользователю. Файлы для обмена на трекере предоставлены пользователями сайта, и администрация не несёт ответственности за их содержание. Просьба не заливать файлы, защищенные авторскими правами, а также файлы нелегального содержания!


    _________________
    [Профиль] [ЛС]
    Показать сообщения:    
    Ответить на тему

    Текущее время: Сегодня, в 10:18

    Часовой пояс: GMT + 2



    Вы не можете начинать темы
    Вы не можете отвечать на сообщения
    Вы не можете редактировать свои сообщения
    Вы не можете удалять свои сообщения
    Вы не можете голосовать в опросах
    Вы не можете прикреплять файлы к сообщениям
    Вы не можете скачивать файлы