BitTorrentTracker PerecTracker.org
BitTorrentTracker PerecTracker.org
    
Регистрация  ·  Вход
 
 · 
Забыли пароль?

  • Операция «Мертвый снег» 2 / Død Snø 2 / Dead Snow: Red vs. Dead / Dead Snow 2 (Томми Виркола / Tommy Wirkola) [2014, Норвегия, Исландия, ужасы, боевик, комедия, BDRemux 1080p] 2x DVO + VO + Original (Nor) + Sub (Rus, Eng, Nor)

    Ответить на тему
     
    Автор Сообщение

    Light

    Создавать темы 11-Апр-2016 19:00

           

    [Цитировать]

    Операция «Мертвый снег» 2 / Død Snø 2

    -
    -Страна: Норвегия, Исландия
    Студия: Saga Film, Tappeluft Pictures, thefyzz, XYZ Films
    Жанр: ужасы, боевик, комедия
    Год выпуска: 2014
    Продолжительность: 01:40:47--Перевод 1: Профессиональный (двухголосый закадровый) R5
    Перевод 2: Одноголосый закадровый RussianGuy27
    Перевод 3: Любительский (двухголосый закадровый) den904 & DeadSno
    Cубтитры: русские (Дэн 107miller), английские, норвежские
    Оригинальная аудиодорожка: норвежский--Режиссер: Томми Виркола / Tommy Wirkola
    В ролях: Амрита Ачария, Carl-Magnus Adner, Жослин Де, Лофи Эльясдоттир, Кристиан Фидженшоу, Шарлотта Фрогнер, Орхан Гамст, Ингар Хельге Гимле, Tage Guddingsmo, Томас Торхаллур Гудмундсон--Описание: После встречи в горах с нацистами-зомби лишь Мартину удалось добраться до цивилизации, в то время как все его приятели погибли. Однако парень забыл о маленьком подарке, который он получил от своей возлюбленной Ханны, — золотой монете, которую та нашла в старом доме. Эта монета — часть клада, который подчиненные штандартенфюрера Герцога собирали для своего фюрера. Но даже после смерти немцы не намерены никому отдавать свои сокровища…-- | | Сэмпл | --Тип релиза: BDRemux 1080p [Død snø 2 2014 1080p Blu-ray AVC DTS-HD MA 5.1-ROOR]
    Контейнер: MKV
    Видео: MPEG-4 AVC / 33626 kbps / 1920x1080 / 24 fps / 16:9 / High Profile 4.1
    Аудио 1: Russian AC3 / 5.1 / 48 kHz / 384 kbps / 16 bits |DVO, R5|
    Аудио 2: Russian AC3 / 5.1 / 48 kHz / 640 kbps / 16 bits |RussianGuy27|
    Аудио 3: Russian DTS-HD Master Audio / 5.1 / 48 kHz / 3840 kbps / 24 bits (DTS Core: 5.1 / 48 kHz / 1509 kbps / 24 bits) |den904 & DeadSno|
    Аудио 4: Norwegian DTS-HD Master Audio / 5.1 / 48 kHz / 3840 kbps / 24 bits (DTS Core: 5.1 / 48 kHz / 1509 kbps / 24 bits) |original|
    Формат субтитров: softsub [SRT]

    MediaInfo

    Общее
    Уникальный идентификатор                 : 197121333632855762401464876459184330624 (0x944C301B01FF5D9BBADAEDCFC9039780)
    Полное имя                               : G:\HD\Операция «Мертвый снег» 2.2014.Blu-Ray.Remux.(1080p).mkv
    Формат                                   : Matroska
    Версия формата                           : Version 4 / Version 2
    Размер файла                             : 29,8 Гбайт
    Продолжительность                        : 1 ч. 40 м.
    Режим общего битрейта                    : Переменный
    Общий поток                              : 42,3 Мбит/сек
    Дата кодирования                         : UTC 2016-03-19 17:14:50
    Программа кодирования                    : mkvmerge v8.9.0 ('Father Daughter') 64bit
    Библиотека кодирования                   : libebml v1.3.3 + libmatroska v1.4.4
    Attachments                              : poster.jpg
    Видео
    Идентификатор                            : 1
    Формат                                   : AVC
    Формат/Информация                        : Advanced Video Codec
    Профиль формата                          : High@L4.1
    Параметр CABAC формата                   : Да
    Параметр ReFrames формата                : 4 кадра
    Идентификатор кодека                     : V_MPEG4/ISO/AVC
    Продолжительность                        : 1 ч. 40 м.
    Вид битрейта                             : Переменный
    Битрейт                                  : 33,6 Мбит/сек
    Максимальный битрейт                     : 35,0 Мбит/сек
    Ширина                                   : 1920 пикселей
    Высота                                   : 1080 пикселей
    Соотношение сторон                       : 16:9
    Режим частоты кадров                     : Постоянный
    Частота кадров                           : 24,000 кадра/сек
    Цветовое пространство                    : YUV
    Субдискретизация насыщенности            : 4:2:0
    Битовая глубина                          : 8 бит
    Тип развёртки                            : Прогрессивная
    Бит/(Пиксели*Кадры)                      : 0.676
    Размер потока                            : 23,7 Гбайт (80%)
    Default                                  : Да
    Forced                                   : Нет
    Аудио #1
    Идентификатор                            : 2
    Формат                                   : AC-3
    Формат/Информация                        : Audio Coding 3
    Расширение режима                        : CM (complete main)
    Параметр Endianness формата              : Big
    Идентификатор кодека                     : A_AC3
    Продолжительность                        : 1 ч. 40 м.
    Вид битрейта                             : Постоянный
    Битрейт                                  : 384 Кбит/сек
    Каналы                                   : 6 каналов
    Расположение каналов                     : Front: L C R, Side: L R, LFE
    Частота                                  : 48,0 КГц
    Частота кадров                           : 31,250 кадров/сек (1536 spf)
    Метод сжатия                             : С потерями
    Размер потока                            : 277 Мбайт (1%)
    Заголовок                                : DVO, R5
    Язык                                     : Russian
    Default                                  : Да
    Forced                                   : Нет
    Аудио #2
    Идентификатор                            : 3
    Формат                                   : AC-3
    Формат/Информация                        : Audio Coding 3
    Расширение режима                        : CM (complete main)
    Параметр Endianness формата              : Big
    Идентификатор кодека                     : A_AC3
    Продолжительность                        : 1 ч. 40 м.
    Вид битрейта                             : Постоянный
    Битрейт                                  : 640 Кбит/сек
    Каналы                                   : 6 каналов
    Расположение каналов                     : Front: L C R, Side: L R, LFE
    Частота                                  : 48,0 КГц
    Частота кадров                           : 31,250 кадров/сек (1536 spf)
    Метод сжатия                             : С потерями
    Размер потока                            : 461 Мбайт (2%)
    Заголовок                                : RussianGuy27
    Язык                                     : Russian
    Default                                  : Нет
    Forced                                   : Нет
    Аудио #3
    Идентификатор                            : 4
    Формат                                   : DTS
    Формат/Информация                        : Digital Theater Systems
    Профиль формата                          : MA / Core
    Режим                                    : 16
    Параметр Endianness формата              : Big
    Идентификатор кодека                     : A_DTS
    Продолжительность                        : 1 ч. 40 м.
    Вид битрейта                             : Переменный / Постоянный
    Битрейт                                  : 3840 Кбит/сек / 1509 Кбит/сек
    Каналы                                   : 6 каналов
    Расположение каналов                     : Front: L C R, Side: L R, LFE
    Частота                                  : 48,0 КГц
    Частота кадров                           : 93,750 кадра/сек (512 spf)
    Битовая глубина                          : 24 бит
    Метод сжатия                             : Без потерь / Lossy
    Размер потока                            : 2,71 Гбайт (9%)
    Заголовок                                : den904 & DeadSno
    Язык                                     : Russian
    Default                                  : Нет
    Forced                                   : Нет
    Аудио #4
    Идентификатор                            : 5
    Формат                                   : DTS
    Формат/Информация                        : Digital Theater Systems
    Профиль формата                          : MA / Core
    Режим                                    : 16
    Параметр Endianness формата              : Big
    Идентификатор кодека                     : A_DTS
    Продолжительность                        : 1 ч. 40 м.
    Вид битрейта                             : Переменный / Постоянный
    Битрейт                                  : 3840 Кбит/сек / 1509 Кбит/сек
    Каналы                                   : 6 каналов
    Расположение каналов                     : Front: L C R, Side: L R, LFE
    Частота                                  : 48,0 КГц
    Частота кадров                           : 93,750 кадра/сек (512 spf)
    Битовая глубина                          : 24 бит
    Метод сжатия                             : Без потерь / Lossy
    Размер потока                            : 2,66 Гбайт (9%)
    Язык                                     : Norwegian
    Default                                  : Нет
    Forced                                   : Нет
    Текст #1
    Идентификатор                            : 6
    Формат                                   : UTF-8
    Идентификатор кодека                     : S_TEXT/UTF8
    Идентификатор кодека/Информация          : UTF-8 Plain Text
    Продолжительность                        : 1 ч. 36 м.
    Битрейт                                  : 53 бит/сек
    Count of elements                        : 761
    Размер потока                            : 38,0 Кбайт (0%)
    Заголовок                                : Дэн 107miller
    Язык                                     : Russian
    Default                                  : Нет
    Forced                                   : Нет
    Текст #2
    Идентификатор                            : 7
    Формат                                   : UTF-8
    Идентификатор кодека                     : S_TEXT/UTF8
    Идентификатор кодека/Информация          : UTF-8 Plain Text
    Продолжительность                        : 1 ч. 32 м.
    Битрейт                                  : 34 бит/сек
    Count of elements                        : 624
    Размер потока                            : 23,5 Кбайт (0%)
    Язык                                     : English
    Default                                  : Нет
    Forced                                   : Нет
    Текст #3
    Идентификатор                            : 8
    Формат                                   : UTF-8
    Идентификатор кодека                     : S_TEXT/UTF8
    Идентификатор кодека/Информация          : UTF-8 Plain Text
    Продолжительность                        : 1 ч. 36 м.
    Битрейт                                  : 29 бит/сек
    Count of elements                        : 637
    Размер потока                            : 20,7 Кбайт (0%)
    Язык                                     : Norwegian
    Default                                  : Нет
    Forced                                   : Нет
    Меню
    00:00:00.000                             : :Chapter 01
    00:08:16.916                             : :Chapter 02
    00:19:04.083                             : :Chapter 03
    00:28:21.458                             : :Chapter 04
    00:35:24.625                             : :Chapter 05
    00:41:38.083                             : :Chapter 06
    00:53:39.375                             : :Chapter 07
    01:01:45.708                             : :Chapter 08
    01:11:11.000                             : :Chapter 09
    01:19:26.291                             : :Chapter 10
    01:27:23.416                             : :Chapter 11
    01:37:04.375                             : :Chapter 12

    Скриншоты


    Дополнительно
    Цитата:Дорожка №1, 2 взята с этой раздачи thx: G00ba
    За дорожку №3 тоже спасибо ему
    Цитата:
    Цитата:

    Дорожка №2 содержит ненормативную лексику
    Цитата:
    Цитата:

    Видеоряд взят с немецкого трансфера. Оригинальная звуковая дорожка взята с NOR трансфера, так как на GER трансфере оригинал был 16 бит

    Сравнение трансферов

    GER Blu-ray (этот релиз) VS NOR Blu-ray





    Скачать .torrent

    Скачать торрент-файл бесплатно и на максимальной скорости!

    Как скачивать? · Что такое торрент? · Рейтинг и ограничения

    !ВНИМАНИЕ!
    Сайт не распространяет и не хранит электронные версии произведений, а занимается лишь лишь предоставлением доступа к создаваемому пользователями каталогу ссылок на торрент-файлы, которые содержат только списки хеш-сумм, убедительная просьба с жалобами обращаться напрямую к пользователю. Файлы для обмена на трекере предоставлены пользователями сайта, и администрация не несёт ответственности за их содержание. Просьба не заливать файлы, защищенные авторскими правами, а также файлы нелегального содержания!


    _________________
    [Профиль] [ЛС]
    Показать сообщения:    
    Ответить на тему

    Текущее время: Сегодня, в 16:38

    Часовой пояс: GMT + 2



    Вы не можете начинать темы
    Вы не можете отвечать на сообщения
    Вы не можете редактировать свои сообщения
    Вы не можете удалять свои сообщения
    Вы не можете голосовать в опросах
    Вы не можете прикреплять файлы к сообщениям
    Вы не можете скачивать файлы