BitTorrentTracker PerecTracker.org
BitTorrentTracker PerecTracker.org
    
Регистрация  ·  Вход
 
 · 
Забыли пароль?

  • (Disco, Synth-pop) [CD] VA - Best Disco Vol. 3 - 1988, FLAC (tracks+.cue), lossless

    Ответить на тему
     
    Автор Сообщение

    Columb

    Создавать темы 22-Янв-2014 08:04

           

    [Цитировать]

    Various Artists - Best Disco Vol. 3
    Жанр: Disco, Synth-pop
    Носитель: CD
    Страна-производитель диска: Japan
    Год издания: 1988
    Издатель (лейбл): Victor
    Номер по каталогу: VDP-1344
    Аудиокодек: FLAC (*.flac)
    Тип рипа: tracks+.cue
    Битрейт аудио: lossless
    Продолжительность: 1:05:03
    Источник (релизер): what.cd (dokuyaku)
    Наличие сканов в содержимом раздачи: нет
    Треклист:
    01 - Sophie - Same (Extended) (5:56)
    02 - Sinitta - G.T.O. (Modina's Red Roaring Mix) (7:30)
    03 - Moulin Rouge - High Energy Boy (Extended) (4:54)
    04 - The Cover Girls - Inside Outside (Extended Remix) (7:04)
    05 - Afrika & the Zulu Kings - The Beach (Long Vocal Version) (6:46)
    06 - Shy Rose - Only Men (Extended) (5:40)
    07 - Sly & Hunter - No More Vision (Extended) (6:41)
    08 - Hugh Bullen - Night Girl (Extended) (6:38)
    09 - Attack featuring Sisley Ferre - Special Love (Extended) (6:52)
    10 - Baccara - Fantasy Boy (Extended) (7:04)

    Discogs.com

    Лог создания рипа

    Exact Audio Copy V1.0 beta 3 from 29. August 2011
    EAC extraction logfile from 5. October 2012, 2:35
    Various Artists / Best Disco vol.3
    Used drive : TSSTcorpDVD+-RW TS-T633C Adapter: 1 ID: 0
    Read mode : SecureUtilize accurate stream : YesDefeat audio cache : YesMake use of C2 pointers : No
    Read offset correction : 6Overread into Lead-In and Lead-Out : NoFill up missing offset samples with silence : YesDelete leading and trailing silent blocks : NoNull samples used in CRC calculations : YesUsed interface : Native Win32 interface for Win NT & 2000Gap handling : Appended to previous track
    Used output format : User Defined EncoderSelected bitrate : 1024 kBit/sQuality : HighAdd ID3 tag : NoCommand line compressor : C:\Program Files (x86)\Exact Audio Copy\Flac\flac.exeAdditional command line options : -8 -V -T "ARTIST=%artist%" -T "TITLE=%title%" -T "ALBUM=%albumtitle%" -T "DATE=%year%" -T "TRACKNUMBER=%tracknr%" -T "GENRE=%genre%" -T "PERFORMER=%albuminterpret%" -T "COMPOSER=%composer%" %haslyrics%--tag-from-file=LYRICS="%lyricsfile%"%haslyrics% -T "ALBUMARTIST=%albumartist%" -T "DISCNUMBER=%cdnumber%" -T "TOTALDISCS=%totalcds%" -T "TOTALTRACKS=%numtracks%" -T "COMMENT=%comment%" %source% -o %dest%
    TOC of the extracted CD
    Track | Start | Length | Start sector | End sector --------------------------------------------------------- 1 | 0:00.37 | 5:56.00 | 37 | 26736 2 | 5:56.37 | 7:30.00 | 26737 | 60486 3 | 13:26.37 | 4:53.45 | 60487 | 82506 4 | 18:20.07 | 7:03.48 | 82507 | 114279 5 | 25:23.55 | 6:45.52 | 114280 | 144706 6 | 32:09.32 | 5:39.63 | 144707 | 170194 7 | 37:49.20 | 6:40.42 | 170195 | 200236 8 | 44:29.62 | 6:38.08 | 200237 | 230094 9 | 51:07.70 | 6:51.40 | 230095 | 260959 10 | 57:59.35 | 7:04.17 | 260960 | 292776
    Track 1
    Filename C:\EACrips\01 - Sophie - Same (Extended).wav
    Pre-gap length 0:00:02.49
    Peak level 100.0 % Extraction speed 1.3 X Track quality 100.0 % Test CRC 3128C0A6 Copy CRC 3128C0A6 Accurately ripped (confidence 2) [7B39BE60] (AR v1) Copy OK
    Track 2
    Filename C:\EACrips\02 - Sinitta - G.T.O. (Modina's Red Roaring Mix).wav
    Peak level 83.4 % Extraction speed 1.5 X Track quality 100.0 % Test CRC 37A98364 Copy CRC 37A98364 Accurately ripped (confidence 2) [3C21DF50] (AR v1) Copy OK
    Track 3
    Filename C:\EACrips\03 - Moulin Rouge - High Energy Boy (Extended).wav
    Peak level 100.0 % Extraction speed 1.6 X Track quality 100.0 % Test CRC 17B14A88 Copy CRC 17B14A88 Accurately ripped (confidence 2) [C9EAB107] (AR v1) Copy OK
    Track 4
    Filename C:\EACrips\04 - The Cover Girls - Inside Outside (Extended Remix).wav
    Peak level 95.2 % Extraction speed 1.7 X Track quality 99.9 % Test CRC 1052EF24 Copy CRC 1052EF24 Accurately ripped (confidence 2) [CEE32CE2] (AR v1) Copy OK
    Track 5
    Filename C:\EACrips\05 - Afrika & the Zulu Kings - The Beach (Long Vocal Version).wav
    Peak level 96.2 % Extraction speed 1.9 X Track quality 99.9 % Test CRC 1D047862 Copy CRC 1D047862 Accurately ripped (confidence 2) [D9799EF8] (AR v1) Copy OK
    Track 6
    Filename C:\EACrips\06 - Shy Rose - Only Men (Extended).wav
    Peak level 100.0 % Extraction speed 2.1 X Track quality 100.0 % Test CRC C5586597 Copy CRC C5586597 Accurately ripped (confidence 2) [4A939B74] (AR v1) Copy OK
    Track 7
    Filename C:\EACrips\07 - Sly & Hunter - No More Vision (Extended).wav
    Peak level 98.6 % Extraction speed 2.3 X Track quality 100.0 % Test CRC 9EA2534D Copy CRC 9EA2534D Accurately ripped (confidence 2) [FA73F48A] (AR v1) Copy OK
    Track 8
    Filename C:\EACrips\08 - Hugh Bullen - Night Girl (Extended).wav
    Peak level 100.0 % Extraction speed 2.4 X Track quality 100.0 % Test CRC 1A6743B0 Copy CRC 1A6743B0 Accurately ripped (confidence 2) [4D798670] (AR v1) Copy OK
    Track 9
    Filename C:\EACrips\09 - Attack featuring Sisley Ferre - Special Love (Extended).wav
    Peak level 93.6 % Extraction speed 2.5 X Track quality 100.0 % Test CRC 5B8446C3 Copy CRC 5B8446C3 Accurately ripped (confidence 2) [AB58AEDA] (AR v1) Copy OK
    Track 10
    Filename C:\EACrips\10 - Baccara - Fantasy Boy (Extended).wav
    Peak level 80.9 % Extraction speed 2.6 X Track quality 100.0 % Test CRC ABB48133 Copy CRC ABB48133 Accurately ripped (confidence 2) [1BFFD3C7] (AR v1) Copy OK
    All tracks accurately ripped
    No errors occurred
    End of status report
    ==== Log checksum 8EDD8ED4E3EEDDDD3B6EA86460D6991284C93A928873967BCFDFDEF465EDDAE5 ====

    Содержание индексной карты (.CUE)

    REM GENRE DiscoREM DATE 1988REM DISCID 7F0F3F0AREM COMMENT "ExactAudioCopy v1.0b3"FILE "01 - Sophie - Same (Extended).wav" WAVE TRACK 01 AUDIO TITLE "Same (Extended)" PERFORMER "Sophie" PREGAP 00:00:37 INDEX 01 00:00:00FILE "02 - Sinitta - G.T.O. (Modina's Red Roaring Mix).wav" WAVE TRACK 02 AUDIO TITLE "G.T.O. (Modina's Red Roaring Mix)" PERFORMER "Sinitta" INDEX 01 00:00:00FILE "03 - Moulin Rouge - High Energy Boy (Extended).wav" WAVE TRACK 03 AUDIO TITLE "High Energy Boy (Extended)" PERFORMER "Moulin Rouge" INDEX 01 00:00:00FILE "04 - The Cover Girls - Inside Outside (Extended Remix).wav" WAVE TRACK 04 AUDIO TITLE "Inside Outside (Extended Remix)" PERFORMER "The Cover Girls" INDEX 01 00:00:00FILE "05 - Afrika & the Zulu Kings - The Beach (Long Vocal Version).wav" WAVE TRACK 05 AUDIO TITLE "The Beach (Long Vocal Version)" PERFORMER "Afrika & the Zulu Kings" INDEX 01 00:00:00FILE "06 - Shy Rose - Only Men (Extended).wav" WAVE TRACK 06 AUDIO TITLE "Only Men (Extended)" PERFORMER "Shy Rose" INDEX 01 00:00:00FILE "07 - Sly & Hunter - No More Vision (Extended).wav" WAVE TRACK 07 AUDIO TITLE "No More Vision (Extended)" PERFORMER "Sly & Hunter" INDEX 01 00:00:00FILE "08 - Hugh Bullen - Night Girl (Extended).wav" WAVE TRACK 08 AUDIO TITLE "Night Girl (Extended)" PERFORMER "Hugh Bullen" INDEX 01 00:00:00FILE "09 - Attack featuring Sisley Ferre - Special Love (Extended).wav" WAVE TRACK 09 AUDIO TITLE "Special Love (Extended)" PERFORMER "Attack featuring Sisley Ferre" INDEX 01 00:00:00FILE "10 - Baccara - Fantasy Boy (Extended).wav" WAVE TRACK 10 AUDIO TITLE "Fantasy Boy (Extended)" PERFORMER "Baccara" INDEX 01 00:00:00
    Скачать .torrent

    Скачать торрент-файл бесплатно и на максимальной скорости!

    Как скачивать? · Что такое торрент? · Рейтинг и ограничения

    !ВНИМАНИЕ!
    Сайт не распространяет и не хранит электронные версии произведений, а занимается лишь лишь предоставлением доступа к создаваемому пользователями каталогу ссылок на торрент-файлы, которые содержат только списки хеш-сумм, убедительная просьба с жалобами обращаться напрямую к пользователю. Файлы для обмена на трекере предоставлены пользователями сайта, и администрация не несёт ответственности за их содержание. Просьба не заливать файлы, защищенные авторскими правами, а также файлы нелегального содержания!

    [Профиль] [ЛС]
    Показать сообщения:    
    Ответить на тему

    Текущее время: Сегодня, в 11:01

    Часовой пояс: GMT + 2



    Вы не можете начинать темы
    Вы не можете отвечать на сообщения
    Вы не можете редактировать свои сообщения
    Вы не можете удалять свои сообщения
    Вы не можете голосовать в опросах
    Вы не можете прикреплять файлы к сообщениям
    Вы не можете скачивать файлы