BitTorrentTracker PerecTracker.org
BitTorrentTracker PerecTracker.org
    
Регистрация  ·  Вход
 
 · 
Забыли пароль?

  • Соловей / Nightingale (Эллиотт Лестер / Elliott Lester) [2014, США, драма, BDRemux 1080p] VO (SDI Media) + 2x Sub (Eng) + Original Eng

    Ответить на тему
     
    Автор Сообщение

    Light

    Создавать темы 11-Апр-2016 19:00

           

    [Цитировать]

    Соловей Nightingale
    Страна: США
    Жанр: драма
    Год выпуска: 2014
    Продолжительность: 01:24:36
    Перевод: Студийный (одноголосый закадровый) SDI Media / Константин Карасик
    Cубтитры: английские [Full, SDH]
    Оригинальная аудиодорожка: английский
    -
    Режиссер: Эллиотт Лестер / Elliott Lester
    В ролях: Дэвид Ойелоуо, Хезер Сторм, Барлоу Джейкобс
    -
    Описание: Провокационная драма одного актера о неудавшейся жизни и одиночестве ветерана войны, который смело исследует самые темные уголки своего раненого сознания.

    Тип релиза: BDRemux 1080p
    Контейнер: MKV
    Видео: MPEG-4 AVC / NTSC 16:9 / 1920x1080 (1,78:1) / 29868 kbps / 23,976 fps / 0.601 bit/pixel / High@L4.1
    Аудио 1: Russian / AC3 / 5.1 Ch / 48 kHz / 384 kbps / 16 bit / SDI Media / VO / Константин Карасик
    Аудио 2: English / DTS-HD Master Audio / 5.1 Ch / 48 kHz / 3419 kbps / 24-bit (DTS Core: 5.1 Ch / 48 kHz / 1509 kbps / 24-bit) / Original
    Формат субтитров: softsub (SRT)
    Навигация по главам: есть

    MediaInfo

    Общее
    Уникальный идентификатор : 173278038495016530778273911286111052582 (0x825C22E4D566E2348EC5928ED1C6A326)
    Полное имя : N:\BDRemux 1080p\Nightingale.2014.BDRemux.1080p.mkv
    Формат : Matroska
    Версия формата : Version 4 / Version 2
    Размер файла : 19,3 Гбайт
    Продолжительность : 1 ч. 24 м.
    Режим общего битрейта : Переменный
    Общий поток : 32,6 Мбит/сек
    Дата кодирования : UTC 2016-04-10 10:16:15
    Программа кодирования : mkvmerge v9.0.1 ('Obstacles') 64bit
    Библиотека кодирования : libebml v1.3.3 + libmatroska v1.4.4
    Видео
    Идентификатор : 1
    Формат : AVC
    Формат/Информация : Advanced Video Codec
    Профиль формата : High@L4.1
    Параметр CABAC формата : Да
    Параметр ReFrames формата : 4 кадра
    Идентификатор кодека : V_MPEG4/ISO/AVC
    Продолжительность : 1 ч. 21 м.
    Вид битрейта : Переменный
    Битрейт : 29,9 Мбит/сек
    Максимальный битрейт : 38,0 Мбит/сек
    Ширина : 1920 пикселей
    Высота : 1080 пикселей
    Соотношение сторон : 16:9
    Режим частоты кадров : Постоянный
    Частота кадров : 23,976 (24000/1001) кадра/сек
    Цветовое пространство : YUV
    Субдискретизация насыщенности : 4:2:0
    Битовая глубина : 8 бит
    Тип развёртки : Прогрессивная
    Бит/(Пиксели*Кадры) : 0.601
    Размер потока : 17,1 Гбайт (89%)
    Язык : English
    Default : Да
    Forced : Нет
    Аудио #1
    Идентификатор : 2
    Формат : AC-3
    Формат/Информация : Audio Coding 3
    Расширение режима : CM (complete main)
    Параметр Endianness формата : Big
    Идентификатор кодека : A_AC3
    Продолжительность : 1 ч. 21 м.
    Вид битрейта : Постоянный
    Битрейт : 384 Кбит/сек
    Каналы : 6 каналов
    Расположение каналов : Front: L C R, Side: L R, LFE
    Частота : 48,0 КГц
    Частота кадров : 31,250 кадров/сек (1536 spf)
    Метод сжатия : С потерями
    Размер потока : 225 Мбайт (1%)
    Заголовок : SDI Media / VO / Константин Карасик
    Язык : Russian
    Default : Да
    Forced : Нет
    Аудио #2
    Идентификатор : 3
    Формат : DTS
    Формат/Информация : Digital Theater Systems
    Профиль формата : MA / Core
    Режим : 16
    Параметр Endianness формата : Big
    Идентификатор кодека : A_DTS
    Продолжительность : 1 ч. 24 м.
    Вид битрейта : Переменный / Постоянный
    Битрейт : 3308 Кбит/сек / 1509 Кбит/сек
    Каналы : 6 каналов
    Расположение каналов : Front: L C R, Side: L R, LFE
    Частота : 48,0 КГц
    Частота кадров : 93,750 кадра/сек (512 spf)
    Битовая глубина : 24 бит
    Метод сжатия : Без потерь / Lossy
    Размер потока : 1,95 Гбайт (10%)
    Заголовок : Original
    Язык : English
    Default : Нет
    Forced : Нет
    Текст #1
    Идентификатор : 4
    Формат : UTF-8
    Идентификатор кодека : S_TEXT/UTF8
    Идентификатор кодека/Информация : UTF-8 Plain Text
    Продолжительность : 1 ч. 17 м.
    Битрейт : 55 бит/сек
    Count of elements : 904
    Размер потока : 31,4 Кбайт (0%)
    Заголовок : Original
    Язык : English
    Default : Нет
    Forced : Нет
    Текст #2
    Идентификатор : 5
    Формат : UTF-8
    Идентификатор кодека : S_TEXT/UTF8
    Идентификатор кодека/Информация : UTF-8 Plain Text
    Продолжительность : 1 ч. 17 м.
    Битрейт : 57 бит/сек
    Count of elements : 989
    Размер потока : 32,7 Кбайт (0%)
    Заголовок : Original / SDH
    Язык : English
    Default : Нет
    Forced : Нет
    Меню
    00:00:00.000 : en:00:00:00.000
    00:07:22.192 : en:00:07:22.192
    00:14:49.138 : en:00:14:49.138
    00:21:53.604 : en:00:21:53.604
    00:27:22.057 : en:00:27:22.057
    00:35:26.666 : en:00:35:26.666
    00:43:29.190 : en:00:43:29.190
    00:50:52.258 : en:00:50:52.258
    00:57:14.681 : en:00:57:14.681
    01:03:05.323 : en:01:03:05.323
    01:10:31.018 : en:01:10:31.018
    01:17:46.996 : en:01:17:46.996

    Скриншоты

    Скачать .torrent

    Скачать торрент-файл бесплатно и на максимальной скорости!

    Как скачивать? · Что такое торрент? · Рейтинг и ограничения

    !ВНИМАНИЕ!
    Сайт не распространяет и не хранит электронные версии произведений, а занимается лишь лишь предоставлением доступа к создаваемому пользователями каталогу ссылок на торрент-файлы, которые содержат только списки хеш-сумм, убедительная просьба с жалобами обращаться напрямую к пользователю. Файлы для обмена на трекере предоставлены пользователями сайта, и администрация не несёт ответственности за их содержание. Просьба не заливать файлы, защищенные авторскими правами, а также файлы нелегального содержания!


    _________________
    [Профиль] [ЛС]
    Показать сообщения:    
    Ответить на тему

    Текущее время: Сегодня, в 23:16

    Часовой пояс: GMT + 2



    Вы не можете начинать темы
    Вы не можете отвечать на сообщения
    Вы не можете редактировать свои сообщения
    Вы не можете удалять свои сообщения
    Вы не можете голосовать в опросах
    Вы не можете прикреплять файлы к сообщениям
    Вы не можете скачивать файлы