BitTorrentTracker PerecTracker.org
BitTorrentTracker PerecTracker.org
    
Регистрация  ·  Вход
 
 · 
Забыли пароль?

  • Эверли / Everly (Джо Линч / Joe Lynch) [2014, США, боевик, триллер, BDRip-AVC] Dub (IPTV) + Sub Eng + Original Eng

    Ответить на тему
     
    Автор Сообщение

    Light

    Создавать темы 11-Апр-2016 19:00

           

    [Цитировать]

    Эверли / Everly
    Слоган: «Она способна абсолютно на всё»
    Страна: США
    Жанр: боевик, триллер
    Год выпуска: 2014
    Продолжительность: 01:32:21
    Перевод: Профессиональный (дублированный) IPTV
    Оригинальная аудиодорожка: Английский
    Cубтитры: Английские (Full), английские (SDH), английские (SDH-Colored)--Режиссер: Джо Линч / Joe Lynch--В ролях: Сальма Хайек, Дженнифер Бланк, Того Игава, Кэролайн Чикези, Габриэлла Райт, Энди МакДермотт, Аки Котабе, Уки Сертич, Масаси Фудзимото, Елена Гаврилович, Аиша Аяма...--Описание: Женщина пытается выжить в схватке с бойцами якудзы, чтобы спасти своих мать и дочь. Действие всего фильма происходит в стенах одной квартиры.--Сэмпл | IMDB | КиноПоиск |
    -
    -
    -Качество видео: BDRip-AVC
    Формат видео: MKV
    Видео: AVC, 1024x426 (2.40:1), 23.976 fps, 1405 kbps avg.
    Аудио 1: AC3, 3/2 (L,C,R,l,r) + LFE ch, 48 kHz, ~448 kbps avg
    Аудио 2: AC3, 3/2 (L,C,R,l,r) + LFE ch, 48 kHz, ~384 kbps avg
    Формат субтитров: softsub (SRT)

    MediaInfo

    --------------------------------------------------------------------------------------
    x264 [info]: frame I:1041 Avg QP:15.49 size: 56430
    x264 [info]: frame P:28561 Avg QP:18.76 size: 16598
    x264 [info]: frame B:103286 Avg QP:19.82 size: 4250
    --------------------------------------------------------------------------------------
    General
    Unique ID : 249460886080327454285368352181763927877 (0xBBAC6B4691AA518F8AEEC518635B6F45)
    Complete name : Everly (2014).mkv
    Format : Matroska
    Format version : Version 4 / Version 2
    File size : 1.44 GiB
    Duration : 1h 32mn
    Overall bit rate : 2 238 Kbps
    Movie name : Эверли / Everly (2014)
    Encoded date : UTC 2016-04-10 23:36:17
    Writing application : mkvmerge v8.1.0 ('Psychedelic Postcard') 64bit
    Writing library : libebml v1.3.1 + libmatroska v1.4.2
    Cover : Yes
    Attachments : cover.png
    Video
    ID : 1
    Format : AVC
    Format/Info : Advanced Video Codec
    Format profile : High@L4.1
    Format settings, CABAC : Yes
    Format settings, ReFrames : 10 frames
    Codec ID : V_MPEG4/ISO/AVC
    Duration : 1h 32mn
    Bit rate : 1 405 Kbps
    Width : 1 024 pixels
    Height : 426 pixels
    Display aspect ratio : 2.40:1
    Frame rate mode : Constant
    Frame rate : 23.976 (24000/1001) fps
    Color space : YUV
    Chroma subsampling : 4:2:0
    Bit depth : 8 bits
    Scan type : Progressive
    Bits/(Pixel*Frame) : 0.134
    Stream size : 927 MiB (63%)
    Title : Everly (2014)
    Writing library : x264 core 133 r2334 a3ac64b
    Encoding settings : cabac=1 / ref=10 / deblock=1:-3:-3 / analyse=0x3:0x113 / me=umh / subme=11 / psy=1 / psy_rd=1.00:0.20 / mixed_ref=1 / me_range=32 / chroma_me=1 / trellis=2 / 8x8dct=1 / cqm=0 / deadzone=21,11 / fast_pskip=0 / chroma_qp_offset=-3 / threads=3 / lookahead_threads=1 / sliced_threads=0 / nr=0 / decimate=0 / interlaced=0 / bluray_compat=0 / constrained_intra=0 / bframes=13 / b_pyramid=2 / b_adapt=2 / b_bias=0 / direct=3 / weightb=1 / open_gop=0 / weightp=2 / keyint=240 / keyint_min=23 / scenecut=40 / intra_refresh=0 / rc_lookahead=40 / rc=2pass / mbtree=0 / bitrate=1405 / ratetol=1.0 / qcomp=0.60 / qpmin=0 / qpmax=69 / qpstep=4 / cplxblur=20.0 / qblur=0.5 / vbv_maxrate=50000 / vbv_bufsize=50000 / nal_hrd=none / ip_ratio=1.40 / pb_ratio=1.30 / aq=1:1.00
    Language : English
    Default : Yes
    Forced : No
    Audio #1
    ID : 2
    Format : AC-3
    Format/Info : Audio Coding 3
    Mode extension : CM (complete main)
    Format settings, Endianness : Big
    Codec ID : A_AC3
    Duration : 1h 32mn
    Bit rate mode : Constant
    Bit rate : 448 Kbps
    Channel(s) : 6 channels
    Channel positions : Front: L C R, Side: L R, LFE
    Sampling rate : 48.0 KHz
    Frame rate : 31.250 fps (1536 spf)
    Compression mode : Lossy
    Stream size : 296 MiB (20%)
    Title : Дубляж (IPTV)
    Language : Russian
    Default : Yes
    Forced : No
    Audio #2
    ID : 3
    Format : AC-3
    Format/Info : Audio Coding 3
    Mode extension : CM (complete main)
    Format settings, Endianness : Big
    Codec ID : A_AC3
    Duration : 1h 32mn
    Bit rate mode : Constant
    Bit rate : 384 Kbps
    Channel(s) : 6 channels
    Channel positions : Front: L C R, Side: L R, LFE
    Sampling rate : 48.0 KHz
    Frame rate : 31.250 fps (1536 spf)
    Compression mode : Lossy
    Stream size : 254 MiB (17%)
    Title : Original
    Language : English
    Default : No
    Forced : No
    Text #1
    ID : 4
    Format : UTF-8
    Codec ID : S_TEXT/UTF8
    Codec ID/Info : UTF-8 Plain Text
    Duration : 1h 23mn
    Bit rate : 43 bps
    Count of elements : 931
    Stream size : 26.7 KiB (0%)
    Title : Full
    Language : English
    Default : No
    Forced : No
    Text #2
    ID : 5
    Format : UTF-8
    Codec ID : S_TEXT/UTF8
    Codec ID/Info : UTF-8 Plain Text
    Duration : 1h 31mn
    Bit rate : 48 bps
    Count of elements : 1215
    Stream size : 32.5 KiB (0%)
    Title : SDH
    Language : English
    Default : No
    Forced : No
    Text #3
    ID : 6
    Format : UTF-8
    Codec ID : S_TEXT/UTF8
    Codec ID/Info : UTF-8 Plain Text
    Duration : 1h 31mn
    Bit rate : 66 bps
    Count of elements : 1216
    Stream size : 44.6 KiB (0%)
    Title : SDH-Colored
    Language : English
    Default : No
    Forced : No
    Menu
    00:00:00.000 : :Chapter 01
    00:07:58.561 : :Chapter 02
    00:14:23.696 : :Chapter 03
    00:21:51.727 : :Chapter 04
    00:29:06.661 : :Chapter 05
    00:34:15.636 : :Chapter 06
    00:38:45.614 : :Chapter 07
    00:46:10.434 : :Chapter 08
    00:51:20.827 : :Chapter 09
    00:56:57.664 : :Chapter 10
    01:02:18.943 : :Chapter 11
    01:07:53.819 : :Chapter 12
    01:17:14.630 : :Chapter 13
    01:26:26.347 : :Chapter 14
    01:32:20.952 : :Chapter 15

    Скриншоты

    Скачать .torrent

    Скачать торрент-файл бесплатно и на максимальной скорости!

    Как скачивать? · Что такое торрент? · Рейтинг и ограничения

    !ВНИМАНИЕ!
    Сайт не распространяет и не хранит электронные версии произведений, а занимается лишь лишь предоставлением доступа к создаваемому пользователями каталогу ссылок на торрент-файлы, которые содержат только списки хеш-сумм, убедительная просьба с жалобами обращаться напрямую к пользователю. Файлы для обмена на трекере предоставлены пользователями сайта, и администрация не несёт ответственности за их содержание. Просьба не заливать файлы, защищенные авторскими правами, а также файлы нелегального содержания!


    _________________
    [Профиль] [ЛС]
    Показать сообщения:    
    Ответить на тему

    Текущее время: Сегодня, в 05:09

    Часовой пояс: GMT + 2



    Вы не можете начинать темы
    Вы не можете отвечать на сообщения
    Вы не можете редактировать свои сообщения
    Вы не можете удалять свои сообщения
    Вы не можете голосовать в опросах
    Вы не можете прикреплять файлы к сообщениям
    Вы не можете скачивать файлы