Register  ·  Log in
Forgot password?

  • Дом Версаче / House of Versace (Сара Шугарман / Sara Sugarman) [2013, Канада, драма, биография, HDTV 1080i] MVO (SDI-Media)

    Reply to topic
    Author Message


    Post 11-Apr-2016 15:48



    Дом Версаче / House of Versace-Страна: Канада
    Студия: Marvista Entertainment, Technicolor Creative Services Montreal
    Жанр: драма, биография
    Год выпуска: 2013
    Продолжительность: 01:25:06-Перевод: Профессиональный (многоголосый закадровый) SDI-Media
    Cубтитры: нет
    Оригинальная аудиодорожка: английский-Режиссер: Сара Шугарман / Sara Sugarman
    В ролях: Джина Гершон, Энрико Колантони, Колм Фиор, Донна Мерфи, Алекс Картер, Samantha Hodhod, Стефано Коласитти, Ян Инглэнд, Рэкел Уэлч, Клаудия Бессо...- | Релиз: -Описание: Фильм расскажет о девушке по имени Донателла, и о том каких усилий стоило сохранение модной империи платиновой блондинке после смерти брата.-Семпл:Тип релиза: HDTV 1080i
    Контейнер: TS
    Видео: 1920x1080 (16:9), 25.000 fps, AVC, ~7633 Kbps, 0.147 bits/pixel
    Аудио 1: Русский, 48.0 KHz, AC3, 2 ch, 192 Kbps


    GeneralID : 1 (0x1)Complete name : House of Versace 2013 TV1000PremiumHD MVO SDI-Media.tsFormat : MPEG-TSFile size : 4.89 GiBDuration : 1h 25mnOverall bit rate mode : VariableOverall bit rate : 8 234 Kbps
    VideoID : 304 (0x130)Menu ID : 1 (0x1)Format : AVCFormat/Info : Advanced Video CodecFormat profile : High@L4Format settings, CABAC : YesFormat settings, ReFrames : 4 framesCodec ID : 27Duration : 1h 25mnBit rate : 7 633 KbpsWidth : 1 920 pixelsHeight : 1 080 pixelsDisplay aspect ratio : 16:9Frame rate : 25.000 fpsStandard : ComponentColor space : YUVChroma subsampling : 4:2:0Bit depth : 8 bitsScan type : InterlacedScan type, store method : Separated fieldsScan order : Top Field FirstBits/(Pixel*Frame) : 0.147Stream size : 4.54 GiB (93%)Color range : LimitedColor primaries : BT.709Transfer characteristics : BT.709Matrix coefficients : BT.709
    AudioID : 424 (0x1A8)Menu ID : 1 (0x1)Format : AC-3Format/Info : Audio Coding 3Mode extension : CM (complete main)Format settings, Endianness : BigCodec ID : 6Duration : 1h 25mnBit rate mode : ConstantBit rate : 192 KbpsChannel(s) : 2 channelsChannel positions : Front: L RSampling rate : 48.0 KHzFrame rate : 31.250 fps (1536 spf)Compression mode : LossyStream size : 117 MiB (2%)Language : Russian


    Download .torrent

    Download free and at maximum speed!

    How to Download? · What is a torrent? · Ratings and Limitations

    The site does not extend and does not store electronic(digital) versions of products, and only gives access to a reference catalogue created by users on torrent-files which contain only lists of the hash-sums, the earnest entreaty, with complaints(abuse) to access directly to the user. Files for an exchange on tracker are given by users of a site, and the administration does not bear the responsibility for their maintenance. The request to not fill in the files protected by copyrights, and also files of the illegal maintenance!

    [Profile] [PM]
    Display posts from previous:    
    Reply to topic

    The time now is: Today 02:31

    All times are GMT + 3 Hours

    You cannot post new topics in this forum
    You cannot reply to topics in this forum
    You cannot edit your posts in this forum
    You cannot delete your posts in this forum
    You cannot vote in polls in this forum
    You cannot attach files in this forum
    You cannot download files in this forum