BitTorrentTracker PerecTracker.org
BitTorrentTracker PerecTracker.org
    
Регистрация  ·  Вход
 
 · 
Забыли пароль?

  • (Disco, Synth-pop) [CD] VA - Best Disco Vol. 2 - 1988, FLAC (tracks+.cue), lossless

    Ответить на тему
     
    Автор Сообщение

    Columb

    Создавать темы 22-Янв-2014 08:01

           

    [Цитировать]

    Various Artists - Best Disco Vol. 2
    Жанр: Disco, Synth-pop
    Носитель: CD
    Страна-производитель диска: Japan
    Год издания: 1988
    Издатель (лейбл): Victor
    Номер по каталогу: VDP-1321
    Аудиокодек: FLAC (*.flac)
    Тип рипа: tracks+.cue
    Битрейт аудио: lossless
    Продолжительность: 1:01:11
    Источник (релизер): what.cd (dokuyaku)
    Наличие сканов в содержимом раздачи: нет
    Треклист:
    01 - The Cover Girls - Because of you (Remixed Club Version) (6:46)
    02 - The Cover Girls - Show Me (Florida Mix) (5:43)
    03 - O'Chi Brown - Whenever You Need Someboy (Extended) (6:50)
    04 - Lady Lily - Blade Runner (4:05)
    05 - Hot Gossip - Break Me into Little Pieces (Extended) (7:52)
    06 - Sinitta - Toy Boy (Pumped Up Mega Mix) (9:47)
    07 - Lady Lily - Boogie Woogie Baby (Extended) (5:10)
    08 - Shy Rose - I Cry for You (U.S. Remix) (5:32)
    09 - Tony Rome - Viva L'amour (Extended) (5:26)
    10 - Jackie Rawe - I Believe in Dreams (4:02)

    Discogs.com

    Лог создания рипа

    Exact Audio Copy V1.0 beta 3 from 29. August 2011
    EAC extraction logfile from 5. October 2012, 1:06
    Various Artists / Best Disco vol.2
    Used drive : TSSTcorpDVD+-RW TS-T633C Adapter: 1 ID: 0
    Read mode : SecureUtilize accurate stream : YesDefeat audio cache : YesMake use of C2 pointers : No
    Read offset correction : 6Overread into Lead-In and Lead-Out : NoFill up missing offset samples with silence : YesDelete leading and trailing silent blocks : NoNull samples used in CRC calculations : YesUsed interface : Native Win32 interface for Win NT & 2000Gap handling : Appended to previous track
    Used output format : User Defined EncoderSelected bitrate : 1024 kBit/sQuality : HighAdd ID3 tag : NoCommand line compressor : C:\Program Files (x86)\Exact Audio Copy\Flac\flac.exeAdditional command line options : -8 -V -T "ARTIST=%artist%" -T "TITLE=%title%" -T "ALBUM=%albumtitle%" -T "DATE=%year%" -T "TRACKNUMBER=%tracknr%" -T "GENRE=%genre%" -T "PERFORMER=%albuminterpret%" -T "COMPOSER=%composer%" %haslyrics%--tag-from-file=LYRICS="%lyricsfile%"%haslyrics% -T "ALBUMARTIST=%albumartist%" -T "DISCNUMBER=%cdnumber%" -T "TOTALDISCS=%totalcds%" -T "TOTALTRACKS=%numtracks%" -T "COMMENT=%comment%" %source% -o %dest%
    TOC of the extracted CD
    Track | Start | Length | Start sector | End sector --------------------------------------------------------- 1 | 0:00.37 | 6:45.50 | 37 | 30461 2 | 6:46.12 | 5:42.38 | 30462 | 56149 3 | 12:28.50 | 6:49.72 | 56150 | 86896 4 | 19:18.47 | 4:04.58 | 86897 | 105254 5 | 23:23.30 | 7:51.70 | 105255 | 140649 6 | 31:15.25 | 9:47.22 | 140650 | 184696 7 | 41:02.47 | 5:10.05 | 184697 | 207951 8 | 46:12.52 | 5:31.50 | 207952 | 232826 9 | 51:44.27 | 5:25.58 | 232827 | 257259 10 | 57:10.10 | 4:01.65 | 257260 | 275399
    Track 1
    Filename C:\EACrips\01 - The Cover Girls - Because of you (Remixed Club Version).wav
    Pre-gap length 0:00:02.49
    Peak level 97.2 % Extraction speed 1.2 X Track quality 99.9 % Test CRC 874E2626 Copy CRC 874E2626 Accurately ripped (confidence 2) [06E4E5CC] (AR v1) Copy OK
    Track 2
    Filename C:\EACrips\02 - The Cover Girls - Show Me (Florida Mix).wav
    Peak level 88.8 % Extraction speed 1.5 X Track quality 100.0 % Test CRC B63C25F5 Copy CRC B63C25F5 Accurately ripped (confidence 2) [DAB1792D] (AR v1) Copy OK
    Track 3
    Filename C:\EACrips\03 - O'Chi Brown - Whenever You Need Someboy (Extended).wav
    Pre-gap length 0:00:00.01
    Peak level 95.5 % Extraction speed 1.7 X Track quality 100.0 % Test CRC F931D111 Copy CRC F931D111 Accurately ripped (confidence 2) [B82AAEA2] (AR v1) Copy OK
    Track 4
    Filename C:\EACrips\04 - Lady Lily - Blade Runner.wav
    Peak level 96.4 % Extraction speed 1.7 X Track quality 100.0 % Test CRC B3E57127 Copy CRC B3E57127 Accurately ripped (confidence 2) [8FF404CB] (AR v1) Copy OK
    Track 5
    Filename C:\EACrips\05 - Hot Gossip - Break Me into Little Pieces (Extended).wav
    Pre-gap length 0:00:00.01
    Peak level 99.7 % Extraction speed 2.0 X Track quality 100.0 % Test CRC A3453A96 Copy CRC A3453A96 Accurately ripped (confidence 2) [9E0BE694] (AR v1) Copy OK
    Track 6
    Filename C:\EACrips\06 - Sinitta - Toy Boy (Pumped Up Mega Mix).wav
    Pre-gap length 0:00:00.01
    Peak level 91.5 % Extraction speed 2.1 X Track quality 99.9 % Test CRC 31D5F06A Copy CRC 31D5F06A Accurately ripped (confidence 2) [514E9882] (AR v1) Copy OK
    Track 7
    Filename C:\EACrips\07 - Lady Lily - Boogie Woogie Baby (Extended).wav
    Peak level 98.5 % Extraction speed 2.0 X Track quality 99.9 % Test CRC 72B4473D Copy CRC 72B4473D Accurately ripped (confidence 2) [8815B321] (AR v1) Copy OK
    Track 8
    Filename C:\EACrips\08 - Shy Rose - I Cry for You (U.S. Remix).wav
    Peak level 98.9 % Extraction speed 2.1 X Track quality 99.9 % Test CRC 96AD74E7 Copy CRC 96AD74E7 Accurately ripped (confidence 2) [E846DAF3] (AR v1) Copy OK
    Track 9
    Filename C:\EACrips\09 - Tony Rome - Viva L'amour (Extended).wav
    Peak level 96.3 % Extraction speed 2.4 X Track quality 100.0 % Test CRC ECB53172 Copy CRC ECB53172 Accurately ripped (confidence 2) [61B2F8F7] (AR v1) Copy OK
    Track 10
    Filename C:\EACrips\10 - Jackie Rawe - I Believe in Dreams.wav
    Pre-gap length 0:00:00.01
    Peak level 82.0 % Extraction speed 2.4 X Track quality 100.0 % Test CRC 4D054AC6 Copy CRC 4D054AC6 Accurately ripped (confidence 2) [CD95AED8] (AR v1) Copy OK
    All tracks accurately ripped
    No errors occurred
    End of status report
    ==== Log checksum 493B4AF70FE82B7B8D33F6BFFFDB5AB4CDAA3E45430257C4C5E4162F4541D327 ====

    Содержание индексной карты (.CUE)

    REM GENRE DiscoREM DATE 1988REM DISCID 7D0E580AREM COMMENT "ExactAudioCopy v1.0b3"FILE "01 - The Cover Girls - Because of you (Remixed Club Version).wav" WAVE TRACK 01 AUDIO TITLE "Because of you (Remixed Club Version)" PERFORMER "The Cover Girls" PREGAP 00:00:37 INDEX 01 00:00:00FILE "02 - The Cover Girls - Show Me (Florida Mix).wav" WAVE TRACK 02 AUDIO TITLE "Show Me (Florida Mix)" PERFORMER "The Cover Girls" INDEX 01 00:00:00 TRACK 03 AUDIO TITLE "Whenever You Need Someboy (Extended)" PERFORMER "O'Chi Brown" INDEX 00 05:42:37FILE "03 - O'Chi Brown - Whenever You Need Someboy (Extended).wav" WAVE INDEX 01 00:00:00FILE "04 - Lady Lily - Blade Runner.wav" WAVE TRACK 04 AUDIO TITLE "Blade Runner" PERFORMER "Lady Lily" INDEX 01 00:00:00 TRACK 05 AUDIO TITLE "Break Me into Little Pieces (Extended)" PERFORMER "Hot Gossip" INDEX 00 04:04:57FILE "05 - Hot Gossip - Break Me into Little Pieces (Extended).wav" WAVE INDEX 01 00:00:00 TRACK 06 AUDIO TITLE "Toy Boy (Pumped Up Mega Mix)" PERFORMER "Sinitta" INDEX 00 07:51:69FILE "06 - Sinitta - Toy Boy (Pumped Up Mega Mix).wav" WAVE INDEX 01 00:00:00FILE "07 - Lady Lily - Boogie Woogie Baby (Extended).wav" WAVE TRACK 07 AUDIO TITLE "Boogie Woogie Baby (Extended)" PERFORMER "Lady Lily" INDEX 01 00:00:00FILE "08 - Shy Rose - I Cry for You (U.S. Remix).wav" WAVE TRACK 08 AUDIO TITLE "I Cry for You (U.S. Remix)" PERFORMER "Shy Rose" INDEX 01 00:00:00FILE "09 - Tony Rome - Viva L'amour (Extended).wav" WAVE TRACK 09 AUDIO TITLE "Viva L'amour (Extended)" PERFORMER "Tony Rome" INDEX 01 00:00:00 TRACK 10 AUDIO TITLE "I Believe in Dreams" PERFORMER "Jackie Rawe" INDEX 00 05:25:57FILE "10 - Jackie Rawe - I Believe in Dreams.wav" WAVE INDEX 01 00:00:00
    Скачать .torrent

    Скачать торрент-файл бесплатно и на максимальной скорости!

    Как скачивать? · Что такое торрент? · Рейтинг и ограничения

    !ВНИМАНИЕ!
    Сайт не распространяет и не хранит электронные версии произведений, а занимается лишь лишь предоставлением доступа к создаваемому пользователями каталогу ссылок на торрент-файлы, которые содержат только списки хеш-сумм, убедительная просьба с жалобами обращаться напрямую к пользователю. Файлы для обмена на трекере предоставлены пользователями сайта, и администрация не несёт ответственности за их содержание. Просьба не заливать файлы, защищенные авторскими правами, а также файлы нелегального содержания!

    [Профиль] [ЛС]
    Показать сообщения:    
    Ответить на тему

    Текущее время: Сегодня, в 06:42

    Часовой пояс: GMT + 2



    Вы не можете начинать темы
    Вы не можете отвечать на сообщения
    Вы не можете редактировать свои сообщения
    Вы не можете удалять свои сообщения
    Вы не можете голосовать в опросах
    Вы не можете прикреплять файлы к сообщениям
    Вы не можете скачивать файлы