BitTorrentTracker PerecTracker.org
BitTorrentTracker PerecTracker.org
    
Регистрация  ·  Вход
 
 · 
Забыли пароль?

  • Части тела / Private Parts (Бетти Томас / Betty Thomas) [1997, США, комедия, биография, WEB-DL 720p] DVO + VO (Д. Есарев) + AVO (П. Санаев) + Original Eng + Sub Rus, Eng

    Ответить на тему
     
    Автор Сообщение

    Light

    Создавать темы 11-Апр-2016 14:48

           

    [Цитировать]

    Части тела / Private Parts
    Страна: США
    Студия: Northern Lights Entertainment, Paramount Pictures, Rysher Entertainment
    Жанр: Комедия, Биография
    Год выпуска: 1997
    Продолжительность: 01:49:29
    Перевод 1: Профессиональный (двухголосый закадровый)
    Перевод 2: Одноголосый закадровый Д. Есарев
    Перевод 3: Авторский (одноголосый закадровый) П. Санаев
    Cубтитры: Русские, Английские
    Оригинальная аудиодорожка: Английский
    Режиссер: Бетти Томас / Betty Thomas
    В ролях: Хауард Стерн, Робин Куиверс, Мэри МакКормак, Фред Норрис, Пол Джаматти, Гэри Делл'Абате, Джеки Мартлинг, Кэрол Олт, Келли Бишоп, Хенри Гудман, Джонатан Хэдари, Пол Хехт, Эллисон Джэнни, Майкл Мерфи, Джеймс Мерто, Ричард Портнов, Рени Сантони, Ли Уилкоф.
    Описание: По автобиографической книге Говарда Стерна, популярнейшего радио диск-жокея, снявшегося в картине в роли самого себя (очень многие персонажи сыграли самих себя).
    Он добился успеха, благодаря своей шокирующей искренности и вследствие этого невероятной скандальности, так как люди обычно не рассказывают о себе, а подбирают для острот выдуманный персонаж. "Почему вы слушаете его?", - спрашивают людей на улице. - "А интересно, что он скажет дальше". Рассказ об этом непредсказуемом комике-импровизаторе построен режиссером от первого лица и начинается с детства, когда будущей звезде эфира было лет восемь. По жанру фильм, конечно, - комедия, но по сути - это драма, в которой, как и в жизни, есть много грустного и смешного. В жизни Говарда Стерна смешного больше, чем у большинства людей.-Рейтинг
    -Сэмпл
    Тип релиза: WEB-DL 720p
    Контейнер: MKV
    Видео: 1280x718 (16:9), 23.976 fps, x264, ~3928 kbps
    Аудио 1: Russian: 48 kHz, AC3, 3/2 (L,C,R,l,r) + LFE ch, ~384 kbps | Двухголосый закадровый
    Аудио 2: Russian: 48 kHz, AC3, 3/2 (L,C,R,l,r) + LFE ch, ~448 kbps | Одноголосый закадровый, Д. Есарев
    Аудио 3: Russian: 48 kHz, AC3, 3/2 (L,C,R,l,r) + LFE ch, ~384 kbps | Одноголосый закадровый, П. Санаев
    Аудио 4: English: 48 kHz, AC3, 3/2 (L,C,R,l,r) + LFE ch, ~448 kbps
    Субтитры: Русские, Английские
    Формат субтитров: softsub (SRT)

    Дополнительно

    За дорогу №1 спасибо team_6strun.
    За дорогу №3 спасибо zim2001.
    Синхронизация igrok2012.
    Перевод Д. Есарева доступен благодаря nortonn
    Работа со звуком mihaildns

    MediaInfo

    Общее
    Unique ID : 200489589620118108117593463523584779707 (0x96D4E3F27B5A6F8E86C0CF1CF0A025BB)
    Complete name : E:\video_rutracker\Private.Parts.1997.720p.WEB-DL.3xRus.Eng.x264.mkv
    Format : Matroska
    Format version : Version 2
    File size : 4,36 Гбайт
    Duration : 1 ч. 49 м.
    Overall bit rate : 5705 Кбит/сек
    Movie name : Private.Parts.1997.720p.WEB-DL igrok2012
    Encoded date : UTC 2016-04-08 19:34:11
    Writing application : mkvmerge v8.3.0 ('Over the Horizon') 64bit
    Writing library : libebml v1.3.1 + libmatroska v1.4.2
    Attachements : cover.jpg
    Видео
    ID : 1
    Format : AVC
    Format/Info : Advanced Video Codec
    Format profile : High@L3.1
    Format settings, CABAC : Нет
    Format settings, ReFrames : 2 кадра
    Codec ID : V_MPEG4/ISO/AVC
    Duration : 1 ч. 49 м.
    Bit rate : 3928 Кбит/сек
    Width : 1280 пикселей
    Height : 718 пикселей
    Display aspect ratio : 16:9
    Frame rate mode : Постоянный
    Frame rate : 23,976 кадра/сек
    Color space : YUV
    Chroma subsampling : 4:2:0
    Bit depth : 8 бит
    Scan type : Прогрессивная
    Bits/(Pixel*Frame) : 0.178
    Stream size : 3,00 Гбайт (69%)
    Title : Private.Parts.1997.720p.WEB-DL
    Language : English
    Default : Да
    Forced : Нет
    Color range : Limited
    Color primaries : BT.709
    Transfer characteristics : BT.709
    Matrix coefficients : BT.709
    Аудио #1
    ID : 2
    Format : AC-3
    Format/Info : Audio Coding 3
    Mode extension : CM (complete main)
    Format settings, Endianness : Big
    Codec ID : A_AC3
    Duration : 1 ч. 49 м.
    Bit rate mode : Постоянный
    Bit rate : 384 Кбит/сек
    Channel(s) : 6 каналов
    Channel positions : Front: L C R, Side: L R, LFE
    Sampling rate : 48,0 КГц
    Frame rate : 31,250 кадров/сек (1536 spf)
    Compression mode : С потерями
    Stream size : 301 Мбайт (7%)
    Title : Двухголосый закадровый
    Language : Russian
    Default : Да
    Forced : Нет
    Аудио #2
    ID : 3
    Format : AC-3
    Format/Info : Audio Coding 3
    Mode extension : CM (complete main)
    Format settings, Endianness : Big
    Codec ID : A_AC3
    Duration : 1 ч. 49 м.
    Bit rate mode : Постоянный
    Bit rate : 448 Кбит/сек
    Channel(s) : 6 каналов
    Channel positions : Front: L C R, Side: L R, LFE
    Sampling rate : 48,0 КГц
    Frame rate : 31,250 кадров/сек (1536 spf)
    Compression mode : С потерями
    Stream size : 351 Мбайт (8%)
    Title : Одноголосый закадровый, Д. Есарев
    Language : Russian
    Default : Нет
    Forced : Нет
    Аудио #3
    ID : 4
    Format : AC-3
    Format/Info : Audio Coding 3
    Mode extension : CM (complete main)
    Format settings, Endianness : Big
    Codec ID : A_AC3
    Duration : 1 ч. 49 м.
    Bit rate mode : Постоянный
    Bit rate : 384 Кбит/сек
    Channel(s) : 6 каналов
    Channel positions : Front: L C R, Side: L R, LFE
    Sampling rate : 48,0 КГц
    Frame rate : 31,250 кадров/сек (1536 spf)
    Compression mode : С потерями
    Stream size : 301 Мбайт (7%)
    Title : Одноголосый закадровый, П. Санаев
    Language : Russian
    Default : Нет
    Forced : Нет
    Аудио #4
    ID : 5
    Format : AC-3
    Format/Info : Audio Coding 3
    Mode extension : CM (complete main)
    Format settings, Endianness : Big
    Codec ID : A_AC3
    Duration : 1 ч. 49 м.
    Bit rate mode : Постоянный
    Bit rate : 448 Кбит/сек
    Channel(s) : 6 каналов
    Channel positions : Front: L C R, Side: L R, LFE
    Sampling rate : 48,0 КГц
    Frame rate : 31,250 кадров/сек (1536 spf)
    Compression mode : С потерями
    Stream size : 351 Мбайт (8%)
    Language : English
    Default : Нет
    Forced : Нет
    Текст #1
    ID : 6
    Format : UTF-8
    Codec ID : S_TEXT/UTF8
    Codec ID/Info : UTF-8 Plain Text
    Language : Russian
    Default : Нет
    Forced : Нет
    Текст #2
    ID : 7
    Format : UTF-8
    Codec ID : S_TEXT/UTF8
    Codec ID/Info : UTF-8 Plain Text
    Language : English
    Default : Нет
    Forced : Нет
    Меню
    00:00:00.000 : en:Opening credits/Fartman
    00:05:51.000 : en:The Early Years
    00:09:49.000 : en:Roosevelt High School
    00:11:30.000 : en:Boston U & The Howard Experience
    00:13:26.000 : en:Alison
    00:16:34.000 : en:Westchester, NY
    00:19:51.000 : en:"Disc jockeys are dogs!"
    00:22:13.000 : en:Howard Goes To Hartford
    00:26:16.000 : en:Opening Night With Brittany Fairchild
    00:32:19.000 : en:Alison Walks Out
    00:34:28.000 : en:Detroit
    00:39:25.000 : en:Alison Comes Back
    00:42:50.000 : en:Howard's Revelation
    00:43:59.000 : en:Washington, DC And The Other Woman
    00:51:11.000 : en:Baby Fever
    00:52:15.000 : en:Sex On The Radio
    00:56:31.000 : en:Fred Comes To Town
    00:57:17.000 : en:Lesbians = Ratings
    00:59:44.000 : en:Alison's Miscarriage
    01:05:02.000 : en:Big News
    01:06:29.000 : en:Howard Goes To NY
    01:10:07.000 : en:Pig Vomit
    01:13:15.000 : en:On The Air With WNBC
    01:16:40.000 : en:The Match Game
    01:21:35.000 : en:Meet Ross Buckingham
    01:24:15.000 : en:The Kielbasa Queen
    01:27:21.000 : en:Welcome Back, Robin
    01:30:01.000 : en:Naked Lady On The Radio
    01:35:52.000 : en:Howard On Letterman
    01:39:45.000 : en:Stern Rules
    01:41:57.000 : en:Howard's Epilogue
    01:44:23.000 : en:End Credits

    Скриншоты


    Скачать .torrent

    Скачать торрент-файл бесплатно и на максимальной скорости!

    Как скачивать? · Что такое торрент? · Рейтинг и ограничения

    !ВНИМАНИЕ!
    Сайт не распространяет и не хранит электронные версии произведений, а занимается лишь лишь предоставлением доступа к создаваемому пользователями каталогу ссылок на торрент-файлы, которые содержат только списки хеш-сумм, убедительная просьба с жалобами обращаться напрямую к пользователю. Файлы для обмена на трекере предоставлены пользователями сайта, и администрация не несёт ответственности за их содержание. Просьба не заливать файлы, защищенные авторскими правами, а также файлы нелегального содержания!


    _________________
    [Профиль] [ЛС]
    Показать сообщения:    
    Ответить на тему

    Текущее время: Сегодня, в 15:45

    Часовой пояс: GMT + 2



    Вы не можете начинать темы
    Вы не можете отвечать на сообщения
    Вы не можете редактировать свои сообщения
    Вы не можете удалять свои сообщения
    Вы не можете голосовать в опросах
    Вы не можете прикреплять файлы к сообщениям
    Вы не можете скачивать файлы