Register  ·  Log in
Forgot password?

  • Скандальная леди У / The Scandalous Lady W (Шери Фоксон / Sheree Folkson) [2015, Великобритания, драма, история, HDTV 1080i] DVO (SDI Media)

    Reply to topic
    Author Message


    Post 11-Apr-2016 15:48



    Скандальная леди У / The Scandalous Lady W-Страна: Великобритания
    Жанр: драма, история
    Год выпуска: 2015
    Продолжительность: 01:27:35-Перевод: Профессиональный (двухголосый закадровый) - SDI Media
    Cубтитры: нет
    Оригинальная аудиодорожка: нет-Режиссер: Шери Фоксон / Sheree Folkson
    В ролях: Натали Дормер, Анейрин Барнард, Шон Эванс, Крэйг Паркинсон, Ричард МакКейб, Дэвид Колдер, Джессика Ганнинг, Питер Салливан, Оливер Крис, Том Эдден...- | Релиз: -Описание: Драма про скандальную англичанку Сеймур Дороти Флеминг, которая потрясла общество XVIII века своей распущенностью, рекордным количеством измен мужу и громким бракоразводным процессом.-Семпл:Тип релиза: HDTV 1080i
    Контейнер: TS
    Видео: 1920x1080 (16:9), 25.000 fps, AVC, ~7328 Kbps, 0.141 bits/pixel
    Аудио: Русский, 48.0 KHz, AC3, 2 ch, 192 Kbps


    GeneralID : 1 (0x1)Complete name : The Scandalous Lady W 2015 TV1000PremiumHD DVO SDI-Media.tsFormat : MPEG-TSFile size : 4.84 GiBDuration : 1h 27mnOverall bit rate mode : VariableOverall bit rate : 7 913 Kbps
    VideoID : 304 (0x130)Menu ID : 1 (0x1)Format : AVCFormat/Info : Advanced Video CodecFormat profile : High@L4Format settings, CABAC : YesFormat settings, ReFrames : 4 framesCodec ID : 27Duration : 1h 27mnBit rate : 7 328 KbpsWidth : 1 920 pixelsHeight : 1 080 pixelsDisplay aspect ratio : 16:9Frame rate : 25.000 fpsStandard : ComponentColor space : YUVChroma subsampling : 4:2:0Bit depth : 8 bitsScan type : InterlacedScan type, store method : Separated fieldsScan order : Top Field FirstBits/(Pixel*Frame) : 0.141Stream size : 4.48 GiB (93%)Color range : LimitedColor primaries : BT.709Transfer characteristics : BT.709Matrix coefficients : BT.709
    AudioID : 424 (0x1A8)Menu ID : 1 (0x1)Format : AC-3Format/Info : Audio Coding 3Mode extension : CM (complete main)Format settings, Endianness : BigCodec ID : 6Duration : 1h 27mnBit rate mode : ConstantBit rate : 192 KbpsChannel(s) : 2 channelsChannel positions : Front: L RSampling rate : 48.0 KHzFrame rate : 31.250 fps (1536 spf)Compression mode : LossyStream size : 120 MiB (2%)Language : Russian


    Download .torrent

    Download free and at maximum speed!

    How to Download? · What is a torrent? · Ratings and Limitations

    The site does not extend and does not store electronic(digital) versions of products, and only gives access to a reference catalogue created by users on torrent-files which contain only lists of the hash-sums, the earnest entreaty, with complaints(abuse) to access directly to the user. Files for an exchange on tracker are given by users of a site, and the administration does not bear the responsibility for their maintenance. The request to not fill in the files protected by copyrights, and also files of the illegal maintenance!

    [Profile] [PM]
    Display posts from previous:    
    Reply to topic

    The time now is: Today 01:10

    All times are GMT + 3 Hours

    You cannot post new topics in this forum
    You cannot reply to topics in this forum
    You cannot edit your posts in this forum
    You cannot delete your posts in this forum
    You cannot vote in polls in this forum
    You cannot attach files in this forum
    You cannot download files in this forum