BitTorrentTracker PerecTracker.org
BitTorrentTracker PerecTracker.org
    
Регистрация  ·  Вход
 
 · 
Забыли пароль?

  • Скандальная леди У / The Scandalous Lady W (Шери Фоксон / Sheree Folkson) [2015, Великобритания, драма, история, HDTV 1080i] DVO (SDI Media)

    Ответить на тему
     
    Автор Сообщение

    Light

    Создавать темы 11-Апр-2016 14:48

           

    [Цитировать]

    Скандальная леди У / The Scandalous Lady W-Страна: Великобритания
    Жанр: драма, история
    Год выпуска: 2015
    Продолжительность: 01:27:35-Перевод: Профессиональный (двухголосый закадровый) - SDI Media
    Cубтитры: нет
    Оригинальная аудиодорожка: нет-Режиссер: Шери Фоксон / Sheree Folkson
    В ролях: Натали Дормер, Анейрин Барнард, Шон Эванс, Крэйг Паркинсон, Ричард МакКейб, Дэвид Колдер, Джессика Ганнинг, Питер Салливан, Оливер Крис, Том Эдден...- | Релиз: -Описание: Драма про скандальную англичанку Сеймур Дороти Флеминг, которая потрясла общество XVIII века своей распущенностью, рекордным количеством измен мужу и громким бракоразводным процессом.-Семпл: http://sendfile.su/1222873-Тип релиза: HDTV 1080i
    Контейнер: TS
    Видео: 1920x1080 (16:9), 25.000 fps, AVC, ~7328 Kbps, 0.141 bits/pixel
    Аудио: Русский, 48.0 KHz, AC3, 2 ch, 192 Kbps

    MediaInfo

    GeneralID : 1 (0x1)Complete name : The Scandalous Lady W 2015 TV1000PremiumHD DVO SDI-Media.tsFormat : MPEG-TSFile size : 4.84 GiBDuration : 1h 27mnOverall bit rate mode : VariableOverall bit rate : 7 913 Kbps
    VideoID : 304 (0x130)Menu ID : 1 (0x1)Format : AVCFormat/Info : Advanced Video CodecFormat profile : High@L4Format settings, CABAC : YesFormat settings, ReFrames : 4 framesCodec ID : 27Duration : 1h 27mnBit rate : 7 328 KbpsWidth : 1 920 pixelsHeight : 1 080 pixelsDisplay aspect ratio : 16:9Frame rate : 25.000 fpsStandard : ComponentColor space : YUVChroma subsampling : 4:2:0Bit depth : 8 bitsScan type : InterlacedScan type, store method : Separated fieldsScan order : Top Field FirstBits/(Pixel*Frame) : 0.141Stream size : 4.48 GiB (93%)Color range : LimitedColor primaries : BT.709Transfer characteristics : BT.709Matrix coefficients : BT.709
    AudioID : 424 (0x1A8)Menu ID : 1 (0x1)Format : AC-3Format/Info : Audio Coding 3Mode extension : CM (complete main)Format settings, Endianness : BigCodec ID : 6Duration : 1h 27mnBit rate mode : ConstantBit rate : 192 KbpsChannel(s) : 2 channelsChannel positions : Front: L RSampling rate : 48.0 KHzFrame rate : 31.250 fps (1536 spf)Compression mode : LossyStream size : 120 MiB (2%)Language : Russian

    Скриншоты

    Скачать .torrent

    Скачать торрент-файл бесплатно и на максимальной скорости!

    Как скачивать? · Что такое торрент? · Рейтинг и ограничения

    !ВНИМАНИЕ!
    Сайт не распространяет и не хранит электронные версии произведений, а занимается лишь лишь предоставлением доступа к создаваемому пользователями каталогу ссылок на торрент-файлы, которые содержат только списки хеш-сумм, убедительная просьба с жалобами обращаться напрямую к пользователю. Файлы для обмена на трекере предоставлены пользователями сайта, и администрация не несёт ответственности за их содержание. Просьба не заливать файлы, защищенные авторскими правами, а также файлы нелегального содержания!


    _________________
    [Профиль] [ЛС]
    Показать сообщения:    
    Ответить на тему

    Текущее время: Сегодня, в 22:01

    Часовой пояс: GMT + 2



    Вы не можете начинать темы
    Вы не можете отвечать на сообщения
    Вы не можете редактировать свои сообщения
    Вы не можете удалять свои сообщения
    Вы не можете голосовать в опросах
    Вы не можете прикреплять файлы к сообщениям
    Вы не можете скачивать файлы