Register  ·  Log in
Forgot password?

  • В ад и обратно / Hell and Back (Том Джинас / Tom Gianas, Росс Шуман / Ross Shuman) [2015, США, мультфильм, комедия, приключения, WEB-DLRip] DVO

    Reply to topic
    Author Message


    Post 11-Apr-2016 15:48



    В ад и обратно / Hell and Back--Страна: США
    Жанр: Комедия, приключения
    Продолжительность: 01:25:56
    Год выпуска: 2015
    -Перевод: Любительский (двухголосый, закадровый) | SinisterSound
    Субтитры: нет
    Режиссёры: Том Джинас / Tom Gianas, Росс Шуман / Ross Shuman
    -В ролях:
    Мила Кунис, Дэнни МакБрайд, Боб Оденкёрк, Ник Свардсон, ТиДжей Миллер, Сьюзен Сарандон, Роб Риггл, Мария Бэмфорд, Лэнс Басс, Х. Джон Бенжамин
    История о двух закадычных друзьях, которые должны спасти третьего участника их сплоченного коллектива после того, как тот по ошибке попал прямиком в Ад.
    -Релиз групп All Films и RGСэмпл:Качество: WEB-DLRip - Исходник (Спасибо -Azureus-)
    Формат: AVI
    Видео: 704x400 (1.76:1), 23.976 fps, XviD build 73 ~2076 kbps avg, 0.31 bit/pixel
    Аудио: 48 kHz, AC3 Dolby Digital, 2/0 (L,R) ch, ~192 kbps

    Отчёт MediaInfo

    Complete name : C:\Users\Максим\Desktop\Hell.and.Back.2015.WEB-DLRip.polkera.avi
    Format : AVI
    Format/Info : Audio Video Interleave
    File size : 1.37 GiB
    Duration : 1h 25mn
    Overall bit rate : 2 278 Kbps
    Writing application : VirtualDubMod | || (build 2550/release)
    Writing library : VirtualDubMod build 2550/release
    Format : MPEG-4 Visual
    Format profile : Streaming Video@L1
    Format settings, BVOP : Yes
    Format settings, QPel : No
    Format settings, GMC : No warppoints
    Format settings, Matrix : Custom
    Codec ID : XVID
    Codec ID/Hint : XviD
    Duration : 1h 25mn
    Bit rate : 2 076 Kbps
    Width : 704 pixels
    Height : 400 pixels
    Display aspect ratio : 16/9
    Frame rate : 23.976 fps
    Resolution : 24 bits
    Colorimetry : 4:2:0
    Scan type : Progressive
    Bits/(Pixel*Frame) : 0.308
    Stream size : 1.25 GiB (91%)
    Writing library : XviD 73
    Format : AC-3
    Format/Info : Audio Coding 3
    Codec ID : 2000
    Duration : 1h 25mn
    Bit rate mode : Constant
    Bit rate : 192 Kbps
    Channel(s) : 2 channels
    Channel positions : L R
    Sampling rate : 48.0 KHz
    Stream size : 118 MiB (8%)
    Alignment : Split accross interleaves
    Interleave, duration : 42 ms (1.00 video frame)
    Interleave, preload duration : 500 ms



    Download .torrent

    Download free and at maximum speed!

    How to Download? · What is a torrent? · Ratings and Limitations

    The site does not extend and does not store electronic(digital) versions of products, and only gives access to a reference catalogue created by users on torrent-files which contain only lists of the hash-sums, the earnest entreaty, with complaints(abuse) to access directly to the user. Files for an exchange on tracker are given by users of a site, and the administration does not bear the responsibility for their maintenance. The request to not fill in the files protected by copyrights, and also files of the illegal maintenance!

    [Profile] [PM]
    Display posts from previous:    
    Reply to topic

    The time now is: Today 10:52

    All times are GMT + 3 Hours

    You cannot post new topics in this forum
    You cannot reply to topics in this forum
    You cannot edit your posts in this forum
    You cannot delete your posts in this forum
    You cannot vote in polls in this forum
    You cannot attach files in this forum
    You cannot download files in this forum