Register  ·  Log in
Forgot password?

  • Доверие / The Trust (Алекс Брюэр / Alex Brewer, Бенжамин Брюэр / Benjamin Brewer) [2016, Великобритания, Триллер, криминал, HDRip] DVO

    Reply to topic
    Author Message


    Post 11-Apr-2016 11:36



    Доверие / The Trust«Плохие копы делают лучших преступников»Страна: Великобритания / Ingenious Media
    Жанр: триллер, криминал
    Год выпуска: 2016
    Продолжительность: 01:45:52
    Перевод: Любительский (двухголосый закадровый) Parovoz Production
    Cубтитры: нет
    Оригинальная аудиодорожка: нет
    Режиссер: Алекс Брюэр / Alex Brewer, Бенжамин Брюэр / Benjamin Brewer
    В ролях: Николас Кейдж, Элайджа Вуд, Джерри Льюис, Стивен Уильямс, Скай Феррейра, Кевин Уайзман, Лиза Гарднер, Кристи Беран, Джеффри Ховард, Томми Вегас
    Описание: Парочка коррумпированных полицейских в отделе улик обнаруживает сейф с нарко-деньгами. Решив похитить тайник, они не подозревают, что вступают в игру за собственные жизни.
    желает всем приятного просмотра!Качество видео: HDRip / BDRip (1080p)
    Формат видео: AVI
    Видео: 656x352 (1.86:1), 23.976 fps, XviD build 65 ~1004 kbps avg, 0.18 bit/pixel
    Аудио: 48 kHz, MPEG Layer 3, 2 ch, ~128.00 kbps avg
    Complete name : C:\Users\Никита\Desktop\666.avi
    Format : AVI
    Format/Info : Audio Video Interleave
    File size : 749 MiB
    Duration : 1h 31mn
    Overall bit rate : 1 142 Kbps
    Writing application : VirtualDubMod (build 2540/release)
    Writing library : VirtualDubMod build 2540/release
    ID : 0
    Format : MPEG-4 Visual
    Format profile : Advanced Simple@L5
    Format settings, BVOP : 2
    Format settings, QPel : No
    Format settings, GMC : No warppoints
    Format settings, Matrix : Custom
    Codec ID : XVID
    Codec ID/Hint : XviD
    Duration : 1h 31mn
    Bit rate : 1 005 Kbps
    Width : 656 pixels
    Height : 352 pixels
    Display aspect ratio : 1.85:1
    Frame rate : 23.976 (24000/1001) fps
    Color space : YUV
    Chroma subsampling : 4:2:0
    Bit depth : 8 bits
    Scan type : Progressive
    Compression mode : Lossy
    Bits/(Pixel*Frame) : 0.181
    Stream size : 659 MiB (88%)
    Writing library : XviD 65
    ID : 1
    Format : MPEG Audio
    Format version : Version 1
    Format profile : Layer 3
    Mode : Joint stereo
    Mode extension : MS Stereo
    Codec ID : 55
    Codec ID/Hint : MP3
    Duration : 1h 31mn
    Bit rate mode : Constant
    Bit rate : 128 Kbps
    Channel(s) : 2 channels
    Sampling rate : 48.0 KHz
    Compression mode : Lossy
    Stream size : 84.0 MiB (11%)
    Alignment : Aligned on interleaves
    Interleave, duration : 42 ms (1.00 video frame)
    Interleave, preload duratio : 504 ms
    Writing library : LAME3.99r
    Encoding settings : -m j -V 4 -q 2 -lowpass 17 -b 128
    Download .torrent

    Download free and at maximum speed!

    How to Download? · What is a torrent? · Ratings and Limitations

    The site does not extend and does not store electronic(digital) versions of products, and only gives access to a reference catalogue created by users on torrent-files which contain only lists of the hash-sums, the earnest entreaty, with complaints(abuse) to access directly to the user. Files for an exchange on tracker are given by users of a site, and the administration does not bear the responsibility for their maintenance. The request to not fill in the files protected by copyrights, and also files of the illegal maintenance!

    [Profile] [PM]
    Display posts from previous:    
    Reply to topic

    The time now is: Today 19:45

    All times are GMT + 3 Hours

    You cannot post new topics in this forum
    You cannot reply to topics in this forum
    You cannot edit your posts in this forum
    You cannot delete your posts in this forum
    You cannot vote in polls in this forum
    You cannot attach files in this forum
    You cannot download files in this forum