BitTorrentTracker PerecTracker.org
BitTorrentTracker PerecTracker.org
    
Регистрация  ·  Вход
 
 · 
Забыли пароль?

  • Superнянь 2 / Babysitting 2 (Николас Бенаму / Nicolas Benamou, Филипп Лашо / Philippe Lacheau) [2015, Франция, комедия, HDRip] Dub

    Ответить на тему
     
    Автор Сообщение

    Light

    Создавать темы 11-Апр-2016 10:36

           

    [Цитировать]

    Superнянь 2 / Babysitting 2
    Страна: Франция / Axel Films, Film Factory
    Жанр: комедия
    Год выпуска: 2015
    Продолжительность: 01:32:41
    Перевод: Профессиональный (дублированный)
    Cубтитры: нет
    Оригинальная аудиодорожка: нет
    Режиссер: Николас Бенаму / Nicolas Benamou, Филипп Лашо / Philippe Lacheau
    В ролях: Филипп Лашо, Алис Давид, Венсан Дезанья, Тарек Будали, Кристиан Клавье, Жюльен Аррути, Грегуар Людиг, Давид Марсе, Шарлотта Габрис, Бето Бенитес
    Описание: Влюбленная парочка Фрэнк и Соня приглашают своих друзей на отдых в Бразилию, в роскошный отель богатенького папы Сони. Планировалось, что это будет отдых мечты, а Фрэнк сделает Соне предложение посреди всей этой экзотики. Но его попытки получить одобрение отца оборачиваются полным провалом. Ведь с такими друзьями, как у него, и враги не нужны! Но настоящая катастрофа — впереди. Когда друзья — сексуально озабоченный Сэм, наивный чудак Эрнест и умственно отсталый Алекс — вместе с беднягой Фрэнком собрались на экскурсию, ушлый папаша пользуется возможностью и засылает в джунгли с этой бандой свою крикливую и надоедливую старушку. В общем, Амазонка и ее девственные леса еще никогда не были в такой опасности!
    Группа
    желает всем приятного просмотра!Качество видео: HDRip / BDRip (1080p)
    Формат видео: AVI
    Видео: 720x384 (1.88:1), 24 fps, XviD build 65 ~1848 kbps avg, 0.28 bit/pixel
    Аудио: 48 kHz, AC3 Dolby Digital, 3/2 (L,C,R,l,r) + LFE ch, ~384 kbps
    Сравнениеhttp://perectracker.org/http://perectracker.org/viewtopic.php?t=5142445
    http://screenshotcomparison.com/comparison/168948MediaInfo
    General
    Complete name : C:\Users\Никита\Desktop\7.avi
    Format : AVI
    Format/Info : Audio Video Interleave
    File size : 1.45 GiB
    Duration : 1h 32mn
    Overall bit rate : 2 242 Kbps
    Writing application : VirtualDubMod 1.5.10.2 (build 2540/release)
    Writing library : VirtualDubMod build 2540/release
    Video
    ID : 0
    Format : MPEG-4 Visual
    Format profile : Advanced Simple@L5
    Format settings, BVOP : 2
    Format settings, QPel : No
    Format settings, GMC : No warppoints
    Format settings, Matrix : Custom
    Codec ID : XVID
    Codec ID/Hint : XviD
    Duration : 1h 32mn
    Bit rate : 1 849 Kbps
    Width : 720 pixels
    Height : 384 pixels
    Display aspect ratio : 1.85:1
    Frame rate : 24.000 fps
    Color space : YUV
    Chroma subsampling : 4:2:0
    Bit depth : 8 bits
    Scan type : Progressive
    Compression mode : Lossy
    Bits/(Pixel*Frame) : 0.279
    Stream size : 1.20 GiB (82%)
    Writing library : XviD 65
    Audio
    ID : 1
    Format : AC-3
    Format/Info : Audio Coding 3
    Mode extension : CM (complete main)
    Format settings, Endianness : Big
    Codec ID : 2000
    Duration : 1h 32mn
    Bit rate mode : Constant
    Bit rate : 384 Kbps
    Channel(s) : 6 channels
    Channel positions : Front: L C R, Side: L R, LFE
    Sampling rate : 48.0 KHz
    Frame rate : 31.250 fps (1536 spf)
    Compression mode : Lossy
    Stream size : 255 MiB (17%)
    Alignment : Split accross interleaves
    Interleave, duration : 42 ms (1.00 video frame)
    Interleave, preload duratio : 500 ms
    Скриншоты
    Скачать .torrent

    Скачать торрент-файл бесплатно и на максимальной скорости!

    Как скачивать? · Что такое торрент? · Рейтинг и ограничения

    !ВНИМАНИЕ!
    Сайт не распространяет и не хранит электронные версии произведений, а занимается лишь лишь предоставлением доступа к создаваемому пользователями каталогу ссылок на торрент-файлы, которые содержат только списки хеш-сумм, убедительная просьба с жалобами обращаться напрямую к пользователю. Файлы для обмена на трекере предоставлены пользователями сайта, и администрация не несёт ответственности за их содержание. Просьба не заливать файлы, защищенные авторскими правами, а также файлы нелегального содержания!


    _________________
    [Профиль] [ЛС]
    Показать сообщения:    
    Ответить на тему

    Текущее время: Сегодня, в 18:53

    Часовой пояс: GMT + 2



    Вы не можете начинать темы
    Вы не можете отвечать на сообщения
    Вы не можете редактировать свои сообщения
    Вы не можете удалять свои сообщения
    Вы не можете голосовать в опросах
    Вы не можете прикреплять файлы к сообщениям
    Вы не можете скачивать файлы