BitTorrentTracker PerecTracker.org
BitTorrentTracker PerecTracker.org
    
Регистрация  ·  Вход
 
 · 
Забыли пароль?

  • Выживший / The Revenant (Алехандро Гонсалес Иньярриту) [2015, Триллер, драма, приключения, вестерн , BD-Remux 1080p] [iTunes , ESAREV , Ukrainian , English] + [Subs Rus , Eng , Ukr]

    Ответить на тему
     
    Автор Сообщение

    Враг Нароода

    Создавать темы 11-Апр-2016 09:56

           

    [Цитировать]

    --Выживший / The Revenant----Год выпуска:2015
    Выпущено:США, Anonymous Content, Appian Way, New Regency Pictures, RatPac Entertainment, Soho VFX
    Жанр: Триллер, драма, приключения, вестерн
    Продолжительность: 02:36:20
    Озвучка 1: Дублированное [iTunes] -Русский
    Озвучка 2: Авторское одноголосое (закадровое) [ESAREV-Есарев] -Русский
    Озвучка 3: Дублированное [iTunes] - Ukrainian -Украинский
    Озвучка 4: Профессиональный многоголосый - English- Английский - Оригинал
    Субтитры: : Russian (Forced, iTunes), Russian (iTunes), Ukrainian (Forced, iTunes), Ukrainian (iTunes), English (Forced, iTunes), English (iTunes) ----Режиссер: Алехандро Гонсалес Иньярриту--В ролях: Леонардо ДиКаприо, Том Харди, Донал Глисон, Уилл Поултер, Пол Андерсон, Лукас Хаас, Брэд Картер, Кристоффер Йонер, Брендан Флетчер, Хавьер Ботет, Кори Грим, Роберт Молони, Винсент Леклерк, Джошуа Бёрдж, МакКалеб Барнетт, Рэй Чейз, Тимоти Лайл, Эдриан Макморран, Дэйв Бурчилл, Майкл Виллар
    -- Посреди опасных красот первозданной природы американского Дикого Запада разворачивается знаменитая Пушная бойня за пятнадцать тюков звериных шкур между охотниками-трапперами и воинственными племенами местных индейцев. Хью Гласс, один из уцелевших трапперов, подвергается жесткому порицанию со стороны огромной медведицы, вследствие чего теряет дар речи и способность самостоятельно передвигаться. Оставленный в качестве сиделки Джон Фицджеральд тихонько прикапывает тело умирающего среди березок и уходит в направлении мексиканской границы. Но смерти вопреки Гласс выживает в тяжелейших условиях и начинает свой длинный и тернистый путь к священной мести Фицджеральду.
    ----Источник: The.Revenant.2015.COMPLETE.BLURAY-BAKED
    Качество : BD-Remux 1080p
    Формат: MKV
    Видео кодек: H264
    Видео: 25,5Мбит/сек,1920х1080(16.9),в 23.976кадр/сек,AVC(High@L4.1)(CABAC/2Ref Frames)
    Аудио Кодек:AC3
    Аудио #1:AC3 , 384 Kbps, 48.0 KHz, 6 ch- Дублированное [iTunes] -Русский
    Аудио #2:AC3 , 448 Kbps, 48.0 KHz, 6 ch- Авторское одноголосое - [ESAREV-Есарев]-Русский
    Аудио #3:AC3 , 192 Kbps, 48.0 KHz, 2 ch- Дублированное- Ukrainian -Украинский
    Аудио #4: AC3 , 448 Kbps, 48.0 KHz, 6 ch - English- Английский - Оригинал--

    MediaInfo сезона

    Общее
    Уникальный идентификатор : 239222366413947151440619501329886066911 (0xB3F88D484B71A39EA499FA7BC0FDB8DF)
    Полное имя : E:\К ИНО\ВЫЖИВШИЙ\THE_REVENANT_2015_Rus_Ukr_Eng[iTunes Russia_ESAREV]_x264_N.В_ BD-Remux_(1080p)\THE_REVENANT_2015_Rus_Ukr_Eng[iTunes Russia_ESAREV]_x264_N.В_ BD-Remux_(1080p).mkv
    Формат : Matroska
    Версия формата : Version 4 / Version 2
    Размер файла : 29,5 Гбайт
    Продолжительность : 2 ч. 36 м.
    Режим общего битрейта : Переменный
    Общий поток : 26,9 Мбит/сек
    Название фильма : THE_REVENANT_2015_Rus_Ukr_Eng[iTunes Russia_ESAREV]_x264_N.В_ BD-Remux_(1080p)
    Дата кодирования : UTC 2016-04-10 16:38:24
    Программа кодирования : mkvmerge v9.0.1 ('Obstacles') 64bit
    Библиотека кодирования : libebml v1.3.3 + libmatroska v1.4.4
    Видео
    Идентификатор : 1
    Формат : AVC
    Формат/Информация : Advanced Video Codec
    Профиль формата : High@L4.1
    Параметр CABAC формата : Да
    Параметр ReFrames формата : 2 кадра
    Идентификатор кодека : V_MPEG4/ISO/AVC
    Продолжительность : 2 ч. 36 м.
    Вид битрейта : Переменный
    Битрейт : 25,5 Мбит/сек
    Ширина : 1920 пикселей
    Высота : 1080 пикселей
    Соотношение сторон : 16:9
    Режим частоты кадров : Постоянный
    Частота кадров : 23,976 (24000/1001) кадра/сек
    Цветовое пространство : YUV
    Субдискретизация насыщенности : 4:2:0
    Битовая глубина : 8 бит
    Тип развёртки : Прогрессивная
    Бит/(Пиксели*Кадры) : 0.512
    Размер потока : 27,8 Гбайт (94%)
    Заголовок : THE_REVENANT_2015_Rus_Ukr_Eng[iTunes Russia_ESAREV]_x264_N.В_ BD-Remux_(1080p)
    Default : Да
    Forced : Нет
    Аудио #1
    Идентификатор : 8
    Формат : AC-3
    Формат/Информация : Audio Coding 3
    Расширение режима : CM (complete main)
    Параметр Endianness формата : Big
    Идентификатор кодека : A_AC3
    Продолжительность : 2 ч. 36 м.
    Вид битрейта : Постоянный
    Битрейт : 384 Кбит/сек
    Каналы : 6 каналов
    Расположение каналов : Front: L C R, Side: L R, LFE
    Частота : 48,0 КГц
    Частота кадров : 31,250 кадров/сек (1536 spf)
    Метод сжатия : С потерями
    Размер потока : 429 Мбайт (1%)
    Заголовок : iTunes Russia
    Язык : Russian
    Default : Да
    Forced : Нет
    Аудио #2
    Идентификатор : 9
    Формат : AC-3
    Формат/Информация : Audio Coding 3
    Расширение режима : CM (complete main)
    Параметр Endianness формата : Big
    Идентификатор кодека : A_AC3
    Продолжительность : 2 ч. 36 м.
    Вид битрейта : Постоянный
    Битрейт : 448 Кбит/сек
    Каналы : 6 каналов
    Расположение каналов : Front: L C R, Side: L R, LFE
    Частота : 48,0 КГц
    Частота кадров : 31,250 кадров/сек (1536 spf)
    Метод сжатия : С потерями
    Размер потока : 501 Мбайт (2%)
    Заголовок : D.Esarev
    Язык : Russian
    Default : Нет
    Forced : Нет
    Аудио #3
    Идентификатор : 10
    Формат : AC-3
    Формат/Информация : Audio Coding 3
    Расширение режима : CM (complete main)
    Параметр Endianness формата : Big
    Идентификатор кодека : A_AC3
    Продолжительность : 2 ч. 36 м.
    Вид битрейта : Постоянный
    Битрейт : 192 Кбит/сек
    Каналы : 2 канала
    Расположение каналов : Front: L R
    Частота : 48,0 КГц
    Частота кадров : 31,250 кадров/сек (1536 spf)
    Метод сжатия : С потерями
    Размер потока : 215 Мбайт (1%)
    Заголовок : iTunes Russia
    Язык : Ukrainian
    Default : Нет
    Forced : Нет
    Аудио #4
    Идентификатор : 11
    Формат : AC-3
    Формат/Информация : Audio Coding 3
    Расширение режима : CM (complete main)
    Параметр Endianness формата : Big
    Идентификатор кодека : A_AC3
    Продолжительность : 2 ч. 36 м.
    Вид битрейта : Постоянный
    Битрейт : 448 Кбит/сек
    Каналы : 6 каналов
    Расположение каналов : Front: L C R, Side: L R, LFE
    Частота : 48,0 КГц
    Частота кадров : 31,250 кадров/сек (1536 spf)
    Метод сжатия : С потерями
    Размер потока : 501 Мбайт (2%)
    Заголовок : Descriptive
    Язык : English
    Default : Нет
    Forced : Нет
    Текст #1
    Идентификатор : 2
    Формат : PGS
    Режим смешивания : zlib
    Идентификатор кодека : S_HDMV/PGS
    Идентификатор кодека/Информация : Picture based subtitle format used on BDs/HD-DVDs
    Продолжительность : 2 ч. 35 м.
    Битрейт : 1317 бит/сек
    Count of elements : 292
    Размер потока : 1,47 Мбайт (0%)
    Заголовок : Forced
    Язык : Russian
    Default : Да
    Forced : Нет
    Текст #2
    Идентификатор : 3
    Формат : PGS
    Режим смешивания : zlib
    Идентификатор кодека : S_HDMV/PGS
    Идентификатор кодека/Информация : Picture based subtitle format used on BDs/HD-DVDs
    Продолжительность : 2 ч. 35 м.
    Битрейт : 9216 бит/сек
    Count of elements : 1694
    Размер потока : 10,3 Мбайт (0%)
    Заголовок : Russian
    Язык : Russian
    Default : Нет
    Forced : Нет
    Текст #3
    Идентификатор : 4
    Формат : PGS
    Режим смешивания : zlib
    Идентификатор кодека : S_HDMV/PGS
    Идентификатор кодека/Информация : Picture based subtitle format used on BDs/HD-DVDs
    Продолжительность : 2 ч. 35 м.
    Битрейт : 1258 бит/сек
    Count of elements : 292
    Размер потока : 1,40 Мбайт (0%)
    Заголовок : Forced
    Язык : Ukrainian
    Default : Нет
    Forced : Нет
    Текст #4
    Идентификатор : 5
    Формат : PGS
    Режим смешивания : zlib
    Идентификатор кодека : S_HDMV/PGS
    Идентификатор кодека/Информация : Picture based subtitle format used on BDs/HD-DVDs
    Продолжительность : 2 ч. 35 м.
    Битрейт : 9290 бит/сек
    Count of elements : 1692
    Размер потока : 10,4 Мбайт (0%)
    Заголовок : Ukrainian
    Язык : Ukrainian
    Default : Нет
    Forced : Нет
    Текст #5
    Идентификатор : 6
    Формат : PGS
    Режим смешивания : zlib
    Идентификатор кодека : S_HDMV/PGS
    Идентификатор кодека/Информация : Picture based subtitle format used on BDs/HD-DVDs
    Продолжительность : 2 ч. 20 м.
    Битрейт : 601 бит/сек
    Count of elements : 254
    Размер потока : 621 Кбайт (0%)
    Заголовок : Forced
    Язык : English
    Default : Нет
    Forced : Нет
    Текст #6
    Идентификатор : 7
    Формат : PGS
    Режим смешивания : zlib
    Идентификатор кодека : S_HDMV/PGS
    Идентификатор кодека/Информация : Picture based subtitle format used on BDs/HD-DVDs
    Продолжительность : 2 ч. 25 м.
    Битрейт : 6811 бит/сек
    Count of elements : 2533
    Размер потока : 7,08 Мбайт (0%)
    Заголовок : English
    Язык : English
    Default : Нет
    Forced : Нет
    --

    Скриншоты

    --------Релиз от: Nikolai.Baranov & PIRATIYA --------
    Скачать .torrent

    Скачать торрент-файл бесплатно и на максимальной скорости!

    Как скачивать? · Что такое торрент? · Рейтинг и ограничения

    !ВНИМАНИЕ!
    Сайт не распространяет и не хранит электронные версии произведений, а занимается лишь лишь предоставлением доступа к создаваемому пользователями каталогу ссылок на торрент-файлы, которые содержат только списки хеш-сумм, убедительная просьба с жалобами обращаться напрямую к пользователю. Файлы для обмена на трекере предоставлены пользователями сайта, и администрация не несёт ответственности за их содержание. Просьба не заливать файлы, защищенные авторскими правами, а также файлы нелегального содержания!


    _________________

    Легко быть оптимистом, когда судьба не валит с ног тяжелыми ударами, а лишь иногда легонько шлепает по заднице.
    [Профиль] [ЛС]

    -746

    Создавать темы 15-Апр-2016 09:32 (спустя 3 дня)

           

    Топик был перенесен из форума Фильмы 2011-2015 в форум Зарубежное кино (HD Video)


    -sasha2006

    _________________
    Как бы ты высоко не летал, не забывай, с кем ты ползал..
     
    Показать сообщения:    
    Ответить на тему

    Текущее время: Сегодня, в 09:05

    Часовой пояс: GMT + 2



    Вы не можете начинать темы
    Вы не можете отвечать на сообщения
    Вы не можете редактировать свои сообщения
    Вы не можете удалять свои сообщения
    Вы не можете голосовать в опросах
    Вы не можете прикреплять файлы к сообщениям
    Вы не можете скачивать файлы