BitTorrentTracker PerecTracker.org
BitTorrentTracker PerecTracker.org
    
Регистрация  ·  Вход
 
 · 
Забыли пароль?

  • Соло / Solo (Жан-Пьер Моки / Jean-Pierre Mocky) [1970, Франция, Бельгия, драма, криминал, DVDRip] Sub Rus (Антон Каптелов) + Original Fre

    Ответить на тему
     
    Автор Сообщение

    rechyn

    Создавать темы 11-Апр-2016 07:47

           

    [Цитировать]

    Соло / SoloСтрана: Франция, Бельгия
    Жанр: драма, криминал
    Год выпуска: 1970
    Продолжительность: 01:22:54
    Перевод: Субтитры Антон Каптелов
    Cубтитры: русские
    Оригинальная аудиодорожка: французский
    Режиссер: Жан-Пьер Моки / Jean-Pierre Mocky
    В ролях: Жан-Пьер Моки, Сильви Бреаль, Энн Делюз, Деннис ЛеГуилло, Рене-Жан Шоффар, Марсель Перес, Эрик Бурнелли, Ален Фуре, Анри Пуарье, Кристиан Дувалекс
    Описание: На закрытой вечеринке высокопоставленных извращенцев происходит расстрел всех ее участников. Полиция быстро выходит на след подозреваемой в преступлении экстремистской студенческой организации и одного из ее активных членов - Виргилия Кабрала. Брат молодого человека пытается помочь своему единственному родственнику и ввязывается в опасную игру, ставкой в которой становится его жизнь.
    Сэмпл: http://multi-up.com/1096727
    Качество видео: DVDRip
    Формат видео: AVI
    Видео: 640x384 (1.67:1), 25 fps, XviD build 47 ~2146 kbps avg, 0.35 bit/pixel
    Аудио: 48 kHz, AC3 Dolby Digital, 2/0 (L,R) ch, ~224 kbps
    Формат субтитров: softsub (SRT)

    MediaInfo

    Format : AVI
    Format/Info : Audio Video Interleave
    File size : 1.38 GiB
    Duration : 1h 22mn
    Overall bit rate : 2 381 Kbps
    Writing library : VirtualDub build 35491/release
    Video
    ID : 0
    Format : MPEG-4 Visual
    Format profile : Advanced Simple@L5
    Format settings, BVOP : 1
    Format settings, QPel : No
    Format settings, GMC : No warppoints
    Format settings, Matrix : Default (MPEG)
    Codec ID : XVID
    Codec ID/Hint : XviD
    Duration : 1h 22mn
    Bit rate : 2 147 Kbps
    Width : 640 pixels
    Height : 384 pixels
    Display aspect ratio : 1.667
    Frame rate : 25.000 fps
    Color space : YUV
    Chroma subsampling : 4:2:0
    Bit depth : 8 bits
    Scan type : Progressive
    Compression mode : Lossy
    Bits/(Pixel*Frame) : 0.349
    Stream size : 1.24 GiB (90%)
    Writing library : XviD 1.2.0.dev47 (UTC 2006-11-01)
    Audio
    ID : 1
    Format : AC-3
    Format/Info : Audio Coding 3
    Mode extension : CM (complete main)
    Format settings, Endianness : Big
    Codec ID : 2000
    Duration : 1h 22mn
    Bit rate mode : Constant
    Bit rate : 224 Kbps
    Channel(s) : 2 channels
    Channel positions : Front: L R
    Sampling rate : 48.0 KHz
    Bit depth : 16 bits
    Compression mode : Lossy
    Stream size : 133 MiB (9%)
    Alignment : Aligned on interleaves
    Interleave, duration : 40 ms (1.00 video frame)
    Interleave, preload duration : 512 ms

    Скриншот c названием фильма

    Скриншоты




    Пример субтитров

    16
    00:05:54,400 --> 00:05:56,277
    Что за бойня!
    17
    00:05:56,680 --> 00:05:58,671
    И драгоценности все еще при ней.
    18
    00:06:00,000 --> 00:06:01,470
    Это тоже.
    19
    00:06:06,244 --> 00:06:08,838
    Набит деньгами, шеф.
    Ничего не украдено.
    20
    00:06:10,280 --> 00:06:12,546
    - Документы жертв, шеф.
    - Спасибо!
    21
    00:06:14,120 --> 00:06:15,820
    Дерьмо!
    22
    00:06:16,516 --> 00:06:17,996
    Дерьмо...
    23
    00:06:18,720 --> 00:06:20,923
    А это не просто абы кто!
    Важные птицы!
    24
    00:06:21,946 --> 00:06:23,360
    Сливки общества!
    25
    00:06:23,520 --> 00:06:25,294
    Солидные грязные старики - вот они кто!
    26
    00:06:25,440 --> 00:06:28,018
    Отложи это пока!
    Не время рассуждать об этом.
    27
    00:06:28,317 --> 00:06:29,817
    Забудь!
    28
    00:06:36,760 --> 00:06:38,886
    Ей нет и 18-ти, шеф.Подобрал на ночь...
    29
    00:06:39,654 --> 00:06:41,794
    - Подцепили на ночь.
    - И отправили в морг!
    30
    00:06:41,918 --> 00:06:45,216
    Резня на День Святого Валентина -
    ничто, по сравнению с этим!
    31
    00:06:46,880 --> 00:06:49,678
    Гильзы, комиссар.
    От автоматов Томпсона.
    32
    00:06:50,120 --> 00:06:51,896
    Такие есть повсюду!
    33
    00:06:52,087 --> 00:06:55,549
    - Здесь их 77.
    - Целых 77? Да, здесь не экономили!
    34
    00:06:56,320 --> 00:06:57,955
    Вот нам и развлечение!
    35
    00:07:09,086 --> 00:07:12,583
    - Что снимаешь для частной коллекции?
    - Для моих файлов, шеф.
    36
    00:07:22,068 --> 00:07:23,465
    Что это?
    Огромное спасибо Антону Каптелову за перевод фильма!
    Скачать .torrent

    Скачать торрент-файл бесплатно и на максимальной скорости!

    Как скачивать? · Что такое торрент? · Рейтинг и ограничения

    !ВНИМАНИЕ!
    Сайт не распространяет и не хранит электронные версии произведений, а занимается лишь лишь предоставлением доступа к создаваемому пользователями каталогу ссылок на торрент-файлы, которые содержат только списки хеш-сумм, убедительная просьба с жалобами обращаться напрямую к пользователю. Файлы для обмена на трекере предоставлены пользователями сайта, и администрация не несёт ответственности за их содержание. Просьба не заливать файлы, защищенные авторскими правами, а также файлы нелегального содержания!


    _________________
    [Профиль] [ЛС]
    Показать сообщения:    
    Ответить на тему

    Текущее время: Сегодня, в 12:42

    Часовой пояс: GMT + 2



    Вы не можете начинать темы
    Вы не можете отвечать на сообщения
    Вы не можете редактировать свои сообщения
    Вы не можете удалять свои сообщения
    Вы не можете голосовать в опросах
    Вы не можете прикреплять файлы к сообщениям
    Вы не можете скачивать файлы