BitTorrentTracker PerecTracker.org
BitTorrentTracker PerecTracker.org
    
Регистрация  ·  Вход
 
 · 
Забыли пароль?

  • Омерзительная восьмерка / The Hateful Eight (Квентин Тарантино / Quentin Tarantino) [2015, США, триллер, драма, криминал, детектив, вестерн, BDRip] Dub (iTunes) + Sub (Rus, Eng) + Original (Eng)

    Ответить на тему
     
    Автор Сообщение

    Light

    Создавать темы 11-Апр-2016 01:16

           

    [Цитировать]

    Омерзительная восьмерка / The Hateful Eight
    Страна: США
    Жанр: триллер, драма, криминал, детектив, вестерн
    Годы выпуска: 2015
    Продолжительность: 02:47:45
    Перевод: Профессиональный (дублированный) iTunes
    Субтитры: русские (полные и форсированные), английские
    Оригинальная аудиодорожка: английский
    Режиссер: Квентин Тарантино / Quentin Tarantino
    В ролях: Сэмюэл Л. Джексон, Курт Рассел, Дженнифер Джейсон Ли, Уолтон Гоггинс, Демиан Бишир, Тим Рот, Майкл Мэдсен, Брюс Дерн, Джеймс Паркс, Дэна Гурье, Зои Белл, Ли Хорсли, Джин Джонс, Кит Джефферсон, Крэйг Старк, Белинда Овино, Ченнинг Татум
    Описание: США после Гражданской войны. Легендарный охотник за головами Джон Рут по кличке Вешатель конвоирует заключенную. По пути к ним прибиваются еще несколько путешественников. Снежная буря вынуждает компанию искать укрытие в лавке на отшибе, где уже расположилось весьма пестрое общество: генерал конфедератов, мексиканец, ковбой… И один из них — не тот, за кого себя выдает.
    Доп. информация:
    Качество видео: BDRip | Dreamcatcher/1080p BD-Remux
    Формат видео: AVI
    Видео: 704x256 (2.75:1), 23.976 fps, XviD build 50 ~1700 kbps avg, 0.39 bit/pixel
    Аудио 1: 48 kHz, AC3 Dolby Digital, 3/2 (L,C,R,l,r) + LFE ch, ~384 kbps дубляж
    Аудио 2: 48 kHz, AC3 Dolby Digital, 3/2 (L,C,R,l,r) + LFE ch, ~384 kbps оригинал
    Формат субтитров: softsub (SRT)

    MediaInfo

    General
    Complete name : C:\Users\User\Desktop\The.Hateful.Eight.2015.BDRip.Dub.Eng_by_LBS.avi
    Format : AVI
    Format/Info : Audio Video Interleave
    Format profile : OpenDML
    File size : 2.91 GiB
    Duration : 2h 47mn
    Overall bit rate : 2 484 Kbps
    Director : Last Boy Scout
    Writing application : VirtualDubMod 1.5.10.3 | www.virtualdub-fr.org || (build 2550/release)
    Copyright : perectracker.org 10.04.2016
    Comment : BDRip Dub (iTunes) + Original (Eng)
    Video
    ID : 0
    Format : MPEG-4 Visual
    Format profile : Advanced Simple@L5
    Format settings, BVOP : 1
    Format settings, QPel : No
    Format settings, GMC : No warppoints
    Format settings, Matrix : Custom
    Codec ID : XVID
    Codec ID/Hint : XviD
    Duration : 2h 47mn
    Bit rate : 1 701 Kbps
    Width : 704 pixels
    Height : 256 pixels
    Display aspect ratio : 2.750
    Frame rate : 23.976 fps
    Color space : YUV
    Chroma subsampling : 4:2:0
    Bit depth : 8 bits
    Scan type : Progressive
    Compression mode : Lossy
    Bits/(Pixel*Frame) : 0.394
    Stream size : 1.99 GiB (68%)
    Writing library : XviD 1.2.1 (UTC 2008-12-04)
    Audio #1
    ID : 1
    Format : AC-3
    Format/Info : Audio Coding 3
    Mode extension : CM (complete main)
    Format settings, Endianness : Big
    Codec ID : 2000
    Duration : 2h 47mn
    Bit rate mode : Constant
    Bit rate : 384 Kbps
    Channel(s) : 6 channels
    Channel positions : Front: L C R, Side: L R, LFE
    Sampling rate : 48.0 KHz
    Bit depth : 16 bits
    Compression mode : Lossy
    Stream size : 461 MiB (15%)
    Alignment : Split accross interleaves
    Interleave, duration : 42 ms (1.00 video frame)
    Interleave, preload duration : 500 ms
    Audio #2
    ID : 2
    Format : AC-3
    Format/Info : Audio Coding 3
    Mode extension : CM (complete main)
    Format settings, Endianness : Big
    Codec ID : 2000
    Duration : 2h 47mn
    Bit rate mode : Constant
    Bit rate : 384 Kbps
    Channel(s) : 6 channels
    Channel positions : Front: L C R, Side: L R, LFE
    Sampling rate : 48.0 KHz
    Bit depth : 16 bits
    Compression mode : Lossy
    Stream size : 461 MiB (15%)
    Alignment : Split accross interleaves
    Interleave, duration : 42 ms (1.00 video frame)
    Interleave, preload duration : 500 ms

    Скриншоты

    -
    Скачать .torrent

    Скачать торрент-файл бесплатно и на максимальной скорости!

    Как скачивать? · Что такое торрент? · Рейтинг и ограничения

    !ВНИМАНИЕ!
    Сайт не распространяет и не хранит электронные версии произведений, а занимается лишь лишь предоставлением доступа к создаваемому пользователями каталогу ссылок на торрент-файлы, которые содержат только списки хеш-сумм, убедительная просьба с жалобами обращаться напрямую к пользователю. Файлы для обмена на трекере предоставлены пользователями сайта, и администрация не несёт ответственности за их содержание. Просьба не заливать файлы, защищенные авторскими правами, а также файлы нелегального содержания!


    _________________
    [Профиль] [ЛС]
    Показать сообщения:    
    Ответить на тему

    Текущее время: Сегодня, в 05:14

    Часовой пояс: GMT + 2



    Вы не можете начинать темы
    Вы не можете отвечать на сообщения
    Вы не можете редактировать свои сообщения
    Вы не можете удалять свои сообщения
    Вы не можете голосовать в опросах
    Вы не можете прикреплять файлы к сообщениям
    Вы не можете скачивать файлы