BitTorrentTracker PerecTracker.org
BitTorrentTracker PerecTracker.org
    
Регистрация  ·  Вход
 
 · 
Забыли пароль?

  • Нарушение территории / Trespass (Уолтер Хилл / Walter Hill) [1992, США, боевик, триллер, HDTVRip 1080p] DVO + AVO + 3x VO + Original (Eng) + Sub Eng

    Ответить на тему
     
    Автор Сообщение

    Light

    Создавать темы 10-Апр-2016 21:04

           

    [Цитировать]

    Нарушение территории / Trespass
    Страна: США
    Студия: Universal Pictures
    Жанр: боевик, триллер
    Год выпуска: 1992
    Продолжительность: 01:40:57
    Перевод: Профессиональный (двухголосый закадровый) Неизвестный Автор
    Перевод 2: Студийный (Одноголосый, закадровый) - Тарадайкин Игорь Георгиевич
    Перевод 3: Авторский (одноголосый закадровый) - Гаврилов Андрей Юрьевич
    Перевод 4: Одноголосый закадровый - Филонов Константин (VOXSOLUS)
    Перевод 5: Одноголосый закадровый - Яроцкий Михаил (kyberpunk)
    Cубтитры: английские
    Оригинальная аудиодорожка: английский
    Режиссер: Уолтер Хилл / Walter Hill
    В ролях: Билл Пэкстон, Айс-Ти, Уильям Сэдлер, Айс Кьюб, Арт Эванс, Деворо Уайт, Брюс А. Янг, Гленн Пламмер, Стоуни Джексон, Т. Э. Рассел
    Описание: Дон и Винс — пожарные из Арканзаса, решившие, что нарвались на «золотую мину», когда им в руки попала «карта сокровищ», ведущая к золоту, украденному из католической церкви более 50 лет назад. Теперь его стоимость составляет более миллиона.
    Золото спрятано где-то в потолке огромной, заброшенной фабрики в Восточном гетто Сент-Луиса. Чистая случайность приводит торговца наркотиками Кинга Джеймса и его боевиков на фабрику, чтобы казнить убийцу одного из своих курьеров.
    Меню: Отсутствует
    Первоисточник (Релизер): seregaanarhist
    Исходник предоставлен: sergey_n
    Звуковая дорожка Яроцкого Михаила предоставлена: будулайроманов
    Сведение голосов: mihaildns
    Сэмпл: http://multi-up.com/1096259
    Тип релиза: HDTVRip 1080p
    Контейнер: MKV
    Видео: x264, 1920x1076, 11000 kbps, 23,976 fps
    Аудио 1: Русский / AC-3, 2 ch, 192 kbps (Rus), 48000Hz, Stereo - Профессиональный (Двухголосый Закадровый)
    Аудио 2: Русский / AC-3, 2 ch, 192 kbps, 48000Hz, Stereo - Тарадайкин Игорь Георгиевич
    Аудио 3: Русский / AC-3, 2 ch, 192 kbps, 48000Hz, Stereo - Гаврилов Андрей Юрьевич
    Аудио 4: Русский / AC-3, 2 ch, 192 kbps, 48000Hz, Stereo - Филонов Константин (VOXSOLUS)
    Аудио 5: Русский / AC-3, 2 ch, 192 kbps (Rus), 48000Hz, Stereo - Яроцкий Михаил (kyberpunk)
    Аудио 6: Английский / AC-3, 2 ch, 192 kbps, 48000Hz, Stereo
    Формат субтитров: SDH или Оpen Captions

    MediaInfo

    General
    Unique ID : 237477111862216446994855561502675355743 (0xB2A86D96ED281347844A7689EF7EC85F)
    Complete name : E:\Downloads\Нарушение территории (Trespass) 1992 HDTVRip 1080p.mkv
    Format : Matroska
    Format version : Version 2
    File size : 8.57 GiB
    Duration : 1h 40mn
    Overall bit rate : 12.2 Mbps
    Encoded date : UTC 2016-04-06 04:41:44
    Writing application : mkvmerge v4.0.0 ('The Stars were mine') сборка от Jun 6 2010 16:18:42
    Writing library : libebml v1.0.0 + libmatroska v1.0.0
    Video
    ID : 1
    Format : AVC
    Format/Info : Advanced Video Codec
    Format profile : High@L4.1
    Format settings, CABAC : Yes
    Format settings, ReFrames : 4 frames
    Codec ID : V_MPEG4/ISO/AVC
    Duration : 1h 40mn
    Bit rate : 11.0 Mbps
    Width : 1 920 pixels
    Height : 1 076 pixels
    Display aspect ratio : 16:9
    Frame rate mode : Constant
    Frame rate : 23.976 (24000/1001) fps
    Color space : YUV
    Chroma subsampling : 4:2:0
    Bit depth : 8 bits
    Scan type : Progressive
    Bits/(Pixel*Frame) : 0.222
    Stream size : 7.59 GiB (89%)
    Writing library : x264 core 146 r2538 121396c
    Encoding settings : cabac=1 / ref=4 / deblock=1:-3:-3 / analyse=0x3:0x133 / me=umh / subme=11 / psy=1 / psy_rd=1.10:0.16 / mixed_ref=1 / me_range=32 / chroma_me=1 / trellis=2 / 8x8dct=1 / cqm=0 / deadzone=21,11 / fast_pskip=0 / chroma_qp_offset=-3 / threads=12 / lookahead_threads=2 / sliced_threads=0 / nr=0 / decimate=0 / interlaced=0 / bluray_compat=0 / constrained_intra=0 / bframes=12 / b_pyramid=2 / b_adapt=2 / b_bias=0 / direct=3 / weightb=1 / open_gop=0 / weightp=2 / keyint=240 / keyint_min=23 / scenecut=40 / intra_refresh=0 / rc_lookahead=60 / rc=2pass / mbtree=0 / bitrate=11000 / ratetol=1.0 / qcomp=0.60 / qpmin=0 / qpmax=69 / qpstep=4 / cplxblur=20.0 / qblur=0.5 / vbv_maxrate=50000 / vbv_bufsize=62500 / nal_hrd=none / filler=0 / ip_ratio=1.40 / pb_ratio=1.30 / aq=1:0.90
    Language : English
    Default : No
    Forced : No
    Audio #1
    ID : 2
    Format : AC-3
    Format/Info : Audio Coding 3
    Mode extension : CM (complete main)
    Format settings, Endianness : Big
    Codec ID : A_AC3
    Duration : 1h 40mn
    Bit rate mode : Constant
    Bit rate : 192 Kbps
    Channel(s) : 2 channels
    Channel positions : Front: L R
    Sampling rate : 48.0 KHz
    Frame rate : 31.250 fps (1536 spf)
    Compression mode : Lossy
    Stream size : 139 MiB (2%)
    Title : DVO
    Language : Russian
    Default : No
    Forced : No
    Audio #2
    ID : 3
    Format : AC-3
    Format/Info : Audio Coding 3
    Mode extension : CM (complete main)
    Format settings, Endianness : Big
    Codec ID : A_AC3
    Duration : 1h 40mn
    Bit rate mode : Constant
    Bit rate : 192 Kbps
    Channel(s) : 2 channels
    Channel positions : Front: L R
    Sampling rate : 48.0 KHz
    Frame rate : 31.250 fps (1536 spf)
    Compression mode : Lossy
    Stream size : 139 MiB (2%)
    Title : AVO ОРТ (Тарадайкин Игорь Георгиевич)
    Language : Russian
    Default : No
    Forced : No
    Audio #3
    ID : 4
    Format : AC-3
    Format/Info : Audio Coding 3
    Mode extension : CM (complete main)
    Format settings, Endianness : Big
    Codec ID : A_AC3
    Duration : 1h 40mn
    Bit rate mode : Constant
    Bit rate : 192 Kbps
    Channel(s) : 2 channels
    Channel positions : Front: L R
    Sampling rate : 48.0 KHz
    Frame rate : 31.250 fps (1536 spf)
    Compression mode : Lossy
    Stream size : 139 MiB (2%)
    Title : AVO Гаврилов Андрей Юрьевич
    Language : Russian
    Default : No
    Forced : No
    Audio #4
    ID : 5
    Format : AC-3
    Format/Info : Audio Coding 3
    Mode extension : CM (complete main)
    Format settings, Endianness : Big
    Codec ID : A_AC3
    Duration : 1h 40mn
    Bit rate mode : Constant
    Bit rate : 192 Kbps
    Channel(s) : 2 channels
    Channel positions : Front: L R
    Sampling rate : 48.0 KHz
    Frame rate : 31.250 fps (1536 spf)
    Compression mode : Lossy
    Stream size : 139 MiB (2%)
    Title : VO Филонов Константин (VOXSOLUS)
    Language : Russian
    Default : No
    Forced : No
    Audio #5
    ID : 6
    Format : AC-3
    Format/Info : Audio Coding 3
    Mode extension : CM (complete main)
    Format settings, Endianness : Big
    Codec ID : A_AC3
    Duration : 1h 40mn
    Bit rate mode : Constant
    Bit rate : 192 Kbps
    Channel(s) : 2 channels
    Channel positions : Front: L R
    Sampling rate : 48.0 KHz
    Frame rate : 31.250 fps (1536 spf)
    Compression mode : Lossy
    Stream size : 139 MiB (2%)
    Title : AVO Яроцкий Михаил (kyberpunk)
    Language : Russian
    Default : No
    Forced : No
    Audio #6
    ID : 7
    Format : AC-3
    Format/Info : Audio Coding 3
    Mode extension : CM (complete main)
    Format settings, Endianness : Big
    Codec ID : A_AC3
    Duration : 1h 40mn
    Bit rate mode : Constant
    Bit rate : 192 Kbps
    Channel(s) : 2 channels
    Channel positions : Front: L R
    Sampling rate : 48.0 KHz
    Frame rate : 31.250 fps (1536 spf)
    Compression mode : Lossy
    Stream size : 139 MiB (2%)
    Language : English
    Default : No
    Forced : No
    Text #1
    ID : 8
    Format : UTF-8
    Codec ID : S_TEXT/UTF8
    Codec ID/Info : UTF-8 Plain Text
    Language : English
    Default : No
    Forced : No
    Text #2
    ID : 9
    Format : UTF-8
    Codec ID : S_TEXT/UTF8
    Codec ID/Info : UTF-8 Plain Text
    Title : SDH
    Language : English
    Default : No
    Forced : No

    Скриншот с названием фильма

    Скриншоты

    Скачать .torrent

    Скачать торрент-файл бесплатно и на максимальной скорости!

    Как скачивать? · Что такое торрент? · Рейтинг и ограничения

    !ВНИМАНИЕ!
    Сайт не распространяет и не хранит электронные версии произведений, а занимается лишь лишь предоставлением доступа к создаваемому пользователями каталогу ссылок на торрент-файлы, которые содержат только списки хеш-сумм, убедительная просьба с жалобами обращаться напрямую к пользователю. Файлы для обмена на трекере предоставлены пользователями сайта, и администрация не несёт ответственности за их содержание. Просьба не заливать файлы, защищенные авторскими правами, а также файлы нелегального содержания!


    _________________
    [Профиль] [ЛС]
    Показать сообщения:    
    Ответить на тему

    Текущее время: Сегодня, в 18:47

    Часовой пояс: GMT + 2



    Вы не можете начинать темы
    Вы не можете отвечать на сообщения
    Вы не можете редактировать свои сообщения
    Вы не можете удалять свои сообщения
    Вы не можете голосовать в опросах
    Вы не можете прикреплять файлы к сообщениям
    Вы не можете скачивать файлы