BitTorrentTracker PerecTracker.org
BitTorrentTracker PerecTracker.org
    
Регистрация  ·  Вход
 
 · 
Забыли пароль?

  • Мой мир / Benim Dunyam / Benim Dünyam (Уур Юджел / Ugur Yucel) [2013, Турция, драма, BDRip 720p] VO (Галина Мительман) + Sub Rus, Eng, Tur + Original (Tur)

    Ответить на тему
     
    Автор Сообщение

    Light

    Создавать темы 10-Апр-2016 21:04

           

    [Цитировать]

    Мой мир / Benim Dunyam-Страна: Турция
    Студия: TMC Film
    Жанр: Драма
    Год выпуска: 2013
    Продолжительность: 01:43:59-Перевод: одноголосый закадровый (Галина Мительман)
    Cубтитры: русские, турецкие, английские
    Оригинальная аудиодорожка: турецкая-Режиссер: Уур Юджел / Ugur Yucel
    В ролях: Берен Саат, Уур Юджел, Айча Бингёль, Тургай Кантюрк, Хазар Эргючлю, Эрдал Кючюккёмюрджу, Ясемин Конка
    Описание: Девушки по имени Эля раннем возрасте перенесла тяжелую болезнь и впоследствии стала слепой и глухой. Восприятия мира, человеком, который не только глух и слеп, но и не имеющим даже об этом мире никакого представления. Девушка не сдается и получает образование с помощью своего учителя Махира, который поможет ей бороться и вложит в нее всю душу…-Доп. информация:


    Перевод на русский язык - Сабина Исмаилова
    Сохранены оригинальные чаптеры как на Blu-Ray
    -Тип релиза: BDRip 720p [SbR]
    Контейнер: MKV
    Видео: AVC, 1280x546, Aspect Ratio: 2.35:1, 5500 kbps, 25.000 fps
    Аудио 1: AC3, 2 ch, 48.0 KHz, 192 Kbps |Русский, oдноголосый закадровый (Галина Мительман)|
    Аудио 2: AC3, 2 ch, 48.0 KHz, 640 Kbps |Tурецкий, оригинал|

    Скриншоты


    MediaInfo

    General
    Unique ID : 195283629604221263346733889008511339906 (0x92EA424D30DE50638D3397E6C969CD82)
    Complete name : D:\temp\Benim.Dunyam.2013.720p.BluRay.x264.Rus.Tur-SbR.mkv
    Format : Matroska
    Format version : Version 4 / Version 2
    File size : 4.60 GiB
    Duration : 1h 43mn
    Overall bit rate : 6 332 Kbps
    Movie name : Release Group СПАМ
    Encoded date : UTC 2016-04-10 16:56:08
    Writing application : mkvmerge v7.3.0 ('Nouages') 32bit built on Oct 22 2014 18:44:01
    Writing library : libebml v1.3.0 libmatroska v1.4.1
    _STATISTICS_WRITING_APP : mkvmerge v7.3.0 ('Nouages') 32bit built on Oct 22 2014 18:44:01
    _STATISTICS_WRITING_DATE_UTC : 2016-04-10 16:56:08
    _STATISTICS_TAGS : BPS DURATION NUMBER_OF_FRAMES NUMBER_OF_BYTES
    DURATION : 01:39:48.160000000
    NUMBER_OF_FRAMES : 913
    NUMBER_OF_BYTES : 33708
    Video #1
    ID : 1
    Format : AVC
    Format/Info : Advanced Video Codec
    Format profile : High@L4.1
    Format settings, CABAC : Yes
    Format settings, ReFrames : 9 frames
    Codec ID : V_MPEG4/ISO/AVC
    Duration : 1h 43mn
    Bit rate : 5 500 Kbps
    Width : 1 280 pixels
    Height : 546 pixels
    Display aspect ratio : 2.35:1
    Original display aspect ratio : 2.35:1
    Frame rate mode : Constant
    Frame rate : 25.000 fps
    Color space : YUV
    Chroma subsampling : 4:2:0
    Bit depth : 8 bits
    Scan type : Progressive
    Bits/(Pixel*Frame) : 0.315
    Stream size : 3.90 GiB (85%)
    Writing library : x264 core 142 r2431kMod ac76440
    Encoding settings : cabac=1 / ref=9 / deblock=1:-3:-3 / analyse=0x3:0x133 / me=umh / subme=10 / psy=1 / fade_compensate=0.00 / psy_rd=1.00:0.00 / mixed_ref=1 / me_range=32 / chroma_me=1 / trellis=2 / 8x8dct=1 / cqm=0 / deadzone=21,11 / fast_pskip=1 / chroma_qp_offset=-2 / threads=16 / lookahead_threads=2 / sliced_threads=0 / nr=0 / decimate=1 / interlaced=0 / bluray_compat=0 / constrained_intra=0 / fgo=0 / bframes=7 / b_pyramid=2 / b_adapt=1 / b_bias=0 / direct=3 / weightb=1 / open_gop=0 / weightp=2 / keyint=250 / keyint_min=23 / scenecut=40 / intra_refresh=0 / rc_lookahead=0 / rc=2pass / mbtree=0 / bitrate=5500 / ratetol=1.0 / qcomp=0.65 / qpmin=0 / qpmax=40 / qpstep=4 / cplxblur=20.0 / qblur=0.5 / vbv_maxrate=50000 / vbv_bufsize=50000 / nal_hrd=none / filler=0 / ip_ratio=1.25 / pb_ratio=1.25 / aq=1:0.60
    Language : Turkish
    Default : Yes
    Forced : No
    _STATISTICS_WRITING_APP : mkvmerge v7.3.0 ('Nouages') 32bit built on Oct 22 2014 18:44:01
    _STATISTICS_WRITING_DATE_UTC : 2016-04-10 16:56:08
    _STATISTICS_TAGS : BPS DURATION NUMBER_OF_FRAMES NUMBER_OF_BYTES
    DURATION : 01:43:59.680000000
    NUMBER_OF_FRAMES : 155992
    NUMBER_OF_BYTES : 4287708527
    Audio #2
    ID : 2
    Format : AC-3
    Format/Info : Audio Coding 3
    Mode extension : CM (complete main)
    Format settings, Endianness : Big
    Codec ID : A_AC3
    Duration : 1h 43mn
    Bit rate mode : Constant
    Bit rate : 192 Kbps
    Channel(s) : 2 channels
    Channel positions : Front: L R
    Sampling rate : 48.0 KHz
    Compression mode : Lossy
    Stream size : 143 MiB (3%)
    Title : Галина Мительман
    Language : Russian
    Default : Yes
    Forced : No
    Audio #3
    ID : 3
    Format : AC-3
    Format/Info : Audio Coding 3
    Mode extension : CM (complete main)
    Format settings, Endianness : Big
    Codec ID : A_AC3
    Duration : 1h 43mn
    Bit rate mode : Constant
    Bit rate : 640 Kbps
    Channel(s) : 2 channels
    Channel positions : Front: L R
    Sampling rate : 48.0 KHz
    Compression mode : Lossy
    Stream size : 476 MiB (10%)
    Title : Original
    Language : Turkish
    Default : No
    Forced : No
    Text #4
    ID : 4
    Format : UTF-8
    Codec ID : S_TEXT/UTF8
    Codec ID/Info : UTF-8 Plain Text
    Language : Russian
    Default : No
    Forced : No
    Text #5
    ID : 5
    Format : UTF-8
    Codec ID : S_TEXT/UTF8
    Codec ID/Info : UTF-8 Plain Text
    Language : Turkish
    Default : No
    Forced : No
    Text #6
    ID : 6
    Format : UTF-8
    Codec ID : S_TEXT/UTF8
    Codec ID/Info : UTF-8 Plain Text
    Language : English
    Default : No
    Forced : No
    Скачать .torrent

    Скачать торрент-файл бесплатно и на максимальной скорости!

    Как скачивать? · Что такое торрент? · Рейтинг и ограничения

    !ВНИМАНИЕ!
    Сайт не распространяет и не хранит электронные версии произведений, а занимается лишь лишь предоставлением доступа к создаваемому пользователями каталогу ссылок на торрент-файлы, которые содержат только списки хеш-сумм, убедительная просьба с жалобами обращаться напрямую к пользователю. Файлы для обмена на трекере предоставлены пользователями сайта, и администрация не несёт ответственности за их содержание. Просьба не заливать файлы, защищенные авторскими правами, а также файлы нелегального содержания!


    _________________
    [Профиль] [ЛС]
    Показать сообщения:    
    Ответить на тему

    Текущее время: Сегодня, в 16:41

    Часовой пояс: GMT + 2



    Вы не можете начинать темы
    Вы не можете отвечать на сообщения
    Вы не можете редактировать свои сообщения
    Вы не можете удалять свои сообщения
    Вы не можете голосовать в опросах
    Вы не можете прикреплять файлы к сообщениям
    Вы не можете скачивать файлы