BitTorrentTracker PerecTracker.org
BitTorrentTracker PerecTracker.org
    
Регистрация  ·  Вход
 
 · 
Забыли пароль?

  • [ATV3] Выживший / The Revenant (Алехандро Гонсалес Иньярриту / Alejandro G. Iñárritu) [2015, США, Гонконг, Тайвань, Канада , Триллер, драма, приключения, вестерн, BDRip, HD (1080p)] DUB + Original + sub (rus, eng, ukr)

    Ответить на тему
     
    Автор Сообщение

    rechyn

    Создавать темы 10-Апр-2016 16:52

           

    [Цитировать]

    Выживший / The Revenant
    «До последней капли крови»
    7.895 / 10 8.20 / 10
    -Год выпуска: 2015
    Страна: США, Гонконг, Тайвань, Канада
    Жанр: Триллер, драма, приключения, вестерн
    Продолжительность: 02:36:55
    Перевод: Дублированный (iTunes)
    Оригинальная аудиодорожка: Есть
    Cубтитры: Русские форсированные, Английские форсированные, Украинские форсированные, Русские, Английские, Украинские
    Режиссёр: Алехандро Гонсалес Иньярриту
    Сценарий: Марк Л. Смит, Алехандро Гонсалес Иньярриту, Майкл Панке
    Продюсер: Стив Голин, Арнон Милчен, Мэри Пэрент
    Оператор: Эммануэль Любецки
    Композитор: Карстен Николай, Рюити Сакамото
    Художник: Джек Фиск, Лорел Бергман, Майкл Динер
    Монтаж: Стивен Миррионе
    В ролях: Леонардо ДиКаприо, Том Харди, Донал Глисон, Уилл Поултер, Форрест Гудлак, Пол Андерсон, Кристоффер Йонер, Джошуа Бёрдж, Дуан Ховард, Мила Нахеко
    Бюджет: $135 000 000
    Сборы в США: $182 785 450
    Сборы в мире: + $331 338 854 = $514 124 304
    Сборы в России: $15 578 241
    Мировая премьера: 16 декабря 2015
    Премьера (РФ): 7 января 2016, «Двадцатый Век Фокс СНГ»
    Описание: Охотник Хью Гласс серьезно ранен на неизведанных просторах американского Дикого Запада. Товарищ Хью по отряду покорителей новых земель Джон Фицжеральд предательски оставляет его умирать в одиночестве. Теперь у Гласса осталось только одно оружие — его сила воли. Он готов бросить вызов первобытной природе, суровой зиме и враждебным племенам индейцев, только чтобы выжить и отомстить Фицжеральду.-Качество исходника: BDRemux (HDClub)
    Качество: BDRip
    Тип: HD (1080p)
    Контейнер: M4V
    Видео: H.264, 1920x800, 2.40:1, 8 000 Kbps, 23.976 (24000/1001) fps
    Аудио 1: Русский/Дублированный (iTunes), AAC / 2.0 / 157 Kbps / 48.0 KHz
    Аудио 2: Английский/Оригинальная дорожка , AAC / 2.0 / 157 Kbps / 48.0 KHz
    Аудио 3: Украинский/Дублированный (iTunes), AAC / 2.0 / 158 Kbps / 48.0 KHz
    Аудио 4: Русский/Дублированный (iTunes), AC-3 / 5.1 / 384 Kbps / 48.0 KHz
    Аудио 5: Английский/Оригинальная дорожка , AC-3 / 5.1 / 640 Kbps / 48.0 KHz
    Субтитры 1: Русские форсированные
    Субтитры 2: Английские форсированные
    Субтитры 3: Украинские форсированные
    Субтитры 4: Русские полные
    Субтитры 5: Английские полные
    Субтитры 6: Украинские полные
    -

    iTunes Meta Tags

    Sort Name: Revenant
    XID: Apple:vendor_id:2015-522941
    contentID: 1067140154
    Copyright: © 2015 Twentieth Century Fox Film Corporation. All rights reserved.
    Screenwriters: Марк Л. Смит, Алехандро Гонсалес Иньярриту, Майкл Панке
    Producers: Стив Голин, Дэвид Кантер, Арнон Милчен
    Director: Алехандро Гонсалес Иньярриту
    Cast: Леонардо ДиКаприо, Том Харди, Донал Глисон, Уилл Поултер, Форрест Гудлак, Пол Андерсон, Кристоффер Йонер, Джошуа Бёрдж, Дуан Ховард, Мила Нахеко
    Studio: 20th Century Fox
    Rating Annotation: Rated R for strong frontier combat and violence including gore images, a sexual assault, language and brief nudity.
    Rating: 5
    Long Description: Охотник Хью Гласс серьезно ранен на неизведанных просторах американского Дикого Запада. Товарищ Хью по отряду покорителей новых земель Джон Фицжеральд предательски оставляет его умирать в одиночестве. Теперь у Гласса осталось только одно оружие - его сила воли. Он готов бросить вызов первобытной природе, суровой зиме и враждебным племенам индейцев, только чтобы выжить и отомстить Фицжеральду.
    Description: Охотник Хью Гласс серьезно ранен на неизведанных просторах американского Дикого Запада. Товарищ Хью по отряду покорителей новых земель Джон Фицжеральд предательски оставляет его умирать в одиночестве. Теперь у Гласса осталось только одно оружие - его сила воли. Он готов бросить вызов первобытной природе, суровой зиме и враждебным племенам индейцев, только чтобы выжить и отомстить Фицжеральду.
    Release Date: 2015-12-16T08:00:00Z
    Genre: Drama
    Artist: Alejandro González Iñárritu
    Name: The Revenant

    MediaInfo

    General
    Complete name : /Users/imac/HandBrake/The Revenant (1080p HD).m4v
    Format : MPEG-4
    Codec ID : M4V  (M4V /M4A /mp42/isom)
    File size : 10.3 GiB
    Duration : 2h 36mn
    Overall bit rate mode : Variable
    Overall bit rate : 9 470 Kbps
    Movie name : The Revenant
    Performer : Alejandro González Iñárritu
    Director : Алехандро Гонсалес Иньярриту
    Actor : Леонардо ДиКаприо / Том Харди / Донал Глисон / Уилл Поултер / Форрест Гудлак / Пол Андерсон / Кристоффер Йонер / Джошуа Бёрдж / Дуан Ховард / Мила Нахеко
    Screenplay by : Марк Л. Смит / Алехандро Гонсалес Иньярриту / Майкл Панке
    Producer : Стив Голин / Дэвид Кантер / Арнон Милчен
    Production studio : 20th Century Fox
    Genre : Drama
    ContentType : Short Film
    Description : Охотник Хью Гласс серьезно ранен на неизведанных просторах американского Дикого Запада. Товарищ Хью по отряду покорителей новых земель Джон Фицжеральд предательски оставляет его умирать в одиночестве. Теперь у Гласса осталось только одно оружие - его сила воли. Он готов бросить вызов первобытной природе, суровой зиме и враждебным племенам индейцев, только чтобы выжить и отомстить Фицжеральду.
    Recorded date : UTC 2015-12-16 08:00:00
    Encoded date : UTC 2016-04-10 09:10:01
    Tagged date : UTC 2016-04-10 09:30:32
    Copyright : © 2015 Twentieth Century Fox Film Corporation. All rights reserved.
    Cover : Yes
    Rating : None
    Title/Sort : Revenant
    LongDescription : Охотник Хью Гласс серьезно ранен на неизведанных просторах американского Дикого Запада. Товарищ Хью по отряду покорителей новых земель Джон Фицжеральд предательски оставляет его умирать в одиночестве. Теперь у Гласса осталось только одно оружие - его сила воли. Он готов бросить вызов первобытной природе, суровой зиме и враждебным племенам индейцев, только чтобы выжить и отомстить Фицжеральду.
    AppleStoreCatalogID : 1067140154
    Vendor : Apple:vendor_id:2015-522941
    ContentRating : mpaa|R|400|Rated R for strong frontier combat and violence including gore images, a sexual assault, language and brief nudity.
    Video #1
    ID : 1
    Format : AVC
    Format/Info : Advanced Video Codec
    Format profile : High@L4
    Format settings, CABAC : Yes
    Format settings, ReFrames : 4 frames
    Codec ID : avc1
    Codec ID/Info : Advanced Video Coding
    Duration : 2h 36mn
    Source duration : 2h 36mn
    Bit rate : 8 000 Kbps
    Width : 1 920 pixels
    Height : 800 pixels
    Display aspect ratio : 2.40:1
    Frame rate mode : Variable
    Frame rate : 23.976 (24000/1001) fps
    Minimum frame rate : 23.974 fps
    Maximum frame rate : 23.981 fps
    Color space : YUV
    Chroma subsampling : 4:2:0
    Bit depth : 8 bits
    Scan type : Progressive
    Bits/(Pixel*Frame) : 0.217
    Stream size : 8.69 GiB (84%)
    Source stream size : 8.69 GiB (84%)
    Title : Main Program
    Writing library : x264 core 142 r2479 dd79a61
    Encoding settings : cabac=1 / ref=4 / deblock=1:-2:-2 / analyse=0x3:0x133 / me=umh / subme=10 / psy=1 / psy_rd=1.00:0.15 / mixed_ref=1 / me_range=32 / chroma_me=1 / trellis=2 / 8x8dct=1 / cqm=0 / deadzone=21,11 / fast_pskip=0 / chroma_qp_offset=-3 / threads=36 / lookahead_threads=6 / sliced_threads=0 / nr=0 / decimate=0 / interlaced=0 / bluray_compat=0 / constrained_intra=0 / bframes=16 / b_pyramid=2 / b_adapt=2 / b_bias=0 / direct=3 / weightb=1 / open_gop=0 / weightp=2 / keyint=240 / keyint_min=24 / scenecut=40 / intra_refresh=0 / rc_lookahead=60 / rc=2pass / mbtree=1 / bitrate=8000 / ratetol=1.0 / qcomp=0.70 / qpmin=0 / qpmax=69 / qpstep=4 / cplxblur=20.0 / qblur=0.5 / vbv_maxrate=25000 / vbv_bufsize=25000 / nal_hrd=none / filler=0 / ip_ratio=1.40 / aq=1:1.00
    Language : English
    Encoded date : UTC 2016-04-10 09:10:01
    Tagged date : UTC 2016-04-10 09:10:28
    Color range : Limited
    Color primaries : BT.709
    Transfer characteristics : BT.709
    Matrix coefficients : BT.709
    Menus : 13,14
    Video #2
    ID : 14
    Format : JPEG
    Codec ID : jpeg
    Duration : 2h 36mn
    Bit rate mode : Variable
    Bit rate : 1 105 bps
    Width : 640 pixels
    Height : 266 pixels
    Display aspect ratio : 2.40:1
    Frame rate mode : Variable
    Frame rate : 0.003 fps
    Minimum frame rate : 0.001 fps
    Maximum frame rate : 0.006 fps
    Color space : YUV
    Chroma subsampling : 4:2:0
    Bit depth : 8 bits
    Compression mode : Lossy
    Bits/(Pixel*Frame) : 2.164
    Stream size : 1.05 MiB (0%)
    Title : Chapter Images
    Language : English
    Default : No
    Encoded date : UTC 2016-04-10 09:12:50
    Tagged date : UTC 2016-04-10 09:12:51
    Menu For : 1
    Audio #1
    ID : 2
    Format : AAC
    Format/Info : Advanced Audio Codec
    Format profile : LC
    Codec ID : 40
    Duration : 2h 36mn
    Bit rate mode : Variable
    Bit rate : 157 Kbps
    Maximum bit rate : 236 Kbps
    Channel(s) : 2 channels
    Channel positions : Front: L R
    Sampling rate : 48.0 KHz
    Frame rate : 46.875 fps (1024 spf)
    Compression mode : Lossy
    Stream size : 176 MiB (2%)
    Title : Russian Stereo
    Language : Russian
    Default : Yes
    Alternate group : 1
    Encoded date : UTC 2016-04-10 09:10:01
    Tagged date : UTC 2016-04-10 09:10:31
    Fallback From : 5
    Subtitles : 7,10
    Menus : 13
    Audio #2
    ID : 3
    Format : AAC
    Format/Info : Advanced Audio Codec
    Format profile : LC
    Codec ID : 40
    Duration : 2h 36mn
    Bit rate mode : Variable
    Bit rate : 157 Kbps
    Maximum bit rate : 247 Kbps
    Channel(s) : 2 channels
    Channel positions : Front: L R
    Sampling rate : 48.0 KHz
    Frame rate : 46.875 fps (1024 spf)
    Compression mode : Lossy
    Stream size : 175 MiB (2%)
    Title : English Stereo
    Language : English
    Default : No
    Alternate group : 1
    Encoded date : UTC 2016-04-10 09:10:01
    Tagged date : UTC 2016-04-10 09:10:31
    Fallback From : 6
    Subtitles : 8,11
    Audio #3
    ID : 4
    Format : AAC
    Format/Info : Advanced Audio Codec
    Format profile : LC
    Codec ID : 40
    Duration : 2h 36mn
    Bit rate mode : Variable
    Bit rate : 158 Kbps
    Maximum bit rate : 253 Kbps
    Channel(s) : 2 channels
    Channel positions : Front: L R
    Sampling rate : 48.0 KHz
    Frame rate : 46.875 fps (1024 spf)
    Compression mode : Lossy
    Stream size : 177 MiB (2%)
    Title : Ukrainian Stereo
    Language : Ukrainian
    Default : No
    Alternate group : 1
    Encoded date : UTC 2016-04-10 09:10:02
    Tagged date : UTC 2016-04-10 09:10:31
    Subtitles : 9,12
    Audio #4
    ID : 5
    Format : AC-3
    Format/Info : Audio Coding 3
    Mode extension : CM (complete main)
    Format settings, Endianness : Big
    Codec ID : ac-3
    Duration : 2h 36mn
    Bit rate mode : Constant
    Bit rate : 384 Kbps
    Channel(s) : 6 channels
    Channel positions : Front: L C R, Side: L R, LFE
    Sampling rate : 48.0 KHz
    Frame rate : 31.250 fps (1536 spf)
    Bit depth : 16 bits
    Compression mode : Lossy
    Stream size : 429 MiB (4%)
    Title : Russian DD 5.1
    Language : Russian
    Default : Inherited From: 2
    Alternate group : 1
    Encoded date : UTC 2016-04-10 09:10:02
    Tagged date : UTC 2016-04-10 09:10:12
    Fallback To : 2
    Subtitles : 7,10
    Audio #5
    ID : 6
    Format : AC-3
    Format/Info : Audio Coding 3
    Mode extension : CM (complete main)
    Format settings, Endianness : Big
    Codec ID : ac-3
    Duration : 2h 36mn
    Bit rate mode : Constant
    Bit rate : 640 Kbps
    Channel(s) : 6 channels
    Channel positions : Front: L C R, Side: L R, LFE
    Sampling rate : 48.0 KHz
    Frame rate : 31.250 fps (1536 spf)
    Bit depth : 16 bits
    Compression mode : Lossy
    Stream size : 716 MiB (7%)
    Title : English DD 5.1
    Language : English
    Default : No
    Alternate group : 1
    Encoded date : UTC 2016-04-10 09:10:02
    Tagged date : UTC 2016-04-10 09:10:12
    Fallback To : 3
    Subtitles : 8,11
    Text #1
    ID : 7
    Format : Timed Text
    Muxing mode : sbtl
    Codec ID : tx3g
    Duration : 2h 36mn
    Bit rate mode : Variable
    Bit rate : 6 bps
    Stream size : 7.06 KiB (0%)
    Title : Russian forced
    Language : Russian
    Default : Yes
    Forced : Yes
    Alternate group : 2
    Encoded date : UTC 2016-04-10 09:10:02
    Tagged date : UTC 2016-04-10 09:12:39
    Subtitles For : 2,5
    Full Alternative : 10
    Text #2
    ID : 8
    Format : Timed Text
    Muxing mode : sbtl
    Codec ID : tx3g
    Duration : 2h 22mn
    Bit rate mode : Variable
    Bit rate : 4 bps
    Stream size : 4.17 KiB (0%)
    Title : English forced
    Language : English
    Default : No
    Forced : Yes
    Alternate group : 2
    Encoded date : UTC 2016-04-10 09:10:02
    Tagged date : UTC 2016-04-10 09:12:39
    Subtitles For : 3,6
    Full Alternative : 11
    Text #3
    ID : 9
    Format : Timed Text
    Muxing mode : sbtl
    Codec ID : tx3g
    Duration : 2h 36mn
    Bit rate mode : Variable
    Bit rate : 6 bps
    Stream size : 6.77 KiB (0%)
    Title : Ukrainian forced
    Language : Ukrainian
    Default : No
    Forced : Yes
    Alternate group : 2
    Encoded date : UTC 2016-04-10 09:10:02
    Tagged date : UTC 2016-04-10 09:12:39
    Subtitles For : 4
    Full Alternative : 12
    Text #4
    ID : 10
    Format : Timed Text
    Muxing mode : sbtl
    Codec ID : tx3g
    Duration : 2h 36mn
    Bit rate mode : Variable
    Bit rate : 41 bps
    Stream size : 46.7 KiB (0%)
    Title : Russian full
    Language : Russian
    Default : No
    Forced : No
    Alternate group : 2
    Encoded date : UTC 2016-04-10 09:10:02
    Tagged date : UTC 2016-04-10 09:12:39
    Subtitles For : 2,5
    Forced Alternative : 7
    Text #5
    ID : 11
    Format : Timed Text
    Muxing mode : sbtl
    Codec ID : tx3g
    Duration : 2h 22mn
    Bit rate mode : Variable
    Bit rate : 29 bps
    Stream size : 30.2 KiB (0%)
    Title : English full
    Language : English
    Default : No
    Forced : No
    Alternate group : 2
    Encoded date : UTC 2016-04-10 09:10:02
    Tagged date : UTC 2016-04-10 09:12:39
    Subtitles For : 3,6
    Forced Alternative : 8
    Text #6
    ID : 12
    Format : Timed Text
    Muxing mode : sbtl
    Codec ID : tx3g
    Duration : 2h 36mn
    Bit rate mode : Variable
    Bit rate : 42 bps
    Stream size : 48.2 KiB (0%)
    Title : Ukrainian full
    Language : Ukrainian
    Default : No
    Forced : No
    Alternate group : 2
    Encoded date : UTC 2016-04-10 09:10:02
    Tagged date : UTC 2016-04-10 09:12:39
    Subtitles For : 4
    Forced Alternative : 9
    Menu #1
    00:00:00.000 : Chapter 1
    00:05:04.930 : Chapter 2
    00:07:58.186 : Chapter 3
    00:13:18.381 : Chapter 4
    00:21:10.769 : Chapter 5
    00:28:21.491 : Chapter 6
    00:37:07.851 : Chapter 7
    00:44:00.429 : Chapter 8
    00:48:15.059 : Chapter 9
    00:51:42.016 : Chapter 10
    00:56:51.074 : Chapter 11
    00:59:50.837 : Chapter 12
    01:03:31.558 : Chapter 13
    01:11:52.475 : Chapter 14
    01:16:35.883 : Chapter 15
    01:21:22.461 : Chapter 16
    01:28:31.223 : Chapter 17
    01:37:30.011 : Chapter 18
    01:48:44.727 : Chapter 19
    01:53:08.865 : Chapter 20
    01:59:05.972 : Chapter 21
    02:02:56.786 : Chapter 22
    02:15:45.304 : Chapter 23
    02:22:51.104 : Chapter 24
    Menu #2
    ID : 13
    Codec ID : text
    Duration : 2h 36mn
    Language : English
    Encoded date : UTC 2016-04-10 09:12:39
    Tagged date : UTC 2016-04-10 09:12:39
    Menu For : 2,1
    00:00:00.000 : Chapter 1
    00:05:04.930 : Chapter 2
    00:07:58.186 : Chapter 3
    00:13:18.381 : Chapter 4
    00:21:10.769 : Chapter 5
    00:28:21.491 : Chapter 6
    00:37:07.851 : Chapter 7
    00:44:00.429 : Chapter 8
    00:48:15.059 : Chapter 9
    00:51:42.016 : Chapter 10
    00:56:51.074 : Chapter 11
    00:59:50.837 : Chapter 12
    01:03:31.558 : Chapter 13
    01:11:52.475 : Chapter 14
    01:16:35.883 : Chapter 15
    01:21:22.461 : Chapter 16
    01:28:31.223 : Chapter 17
    01:37:30.011 : Chapter 18
    01:48:44.727 : Chapter 19
    01:53:08.865 : Chapter 20
    01:59:05.972 : Chapter 21
    02:02:56.786 : Chapter 22
    02:15:45.304 : Chapter 23
    02:22:51.104 : Chapter 24
    Bit rate mode : VBR

    x264 лог

    x264 [info]: frame I:1122  Avg QP:14.16  size:230617
    x264 [info]: frame P:61505 Avg QP:17.84  size: 79382
    x264 [info]: frame B:162301 Avg QP:19.38  size: 25847
    x264 [info]: consecutive B-frames:  4.4%  8.1%  8.7% 42.0% 10.7% 15.5%  4.0%  4.7%  0.3%  0.1%  0.1%  0.6%  0.1%  0.0%  0.1%  0.1%  0.6%
    x264 [info]: mb I  I16..4: 11.3% 67.5% 21.1%
    x264 [info]: mb P  I16..4:  1.0% 13.9%  1.8%  P16..4: 37.1% 22.0% 15.9%  1.6%  0.7%    skip: 5.9%
    x264 [info]: mb B  I16..4:  0.1%  1.9%  0.4%  B16..8: 40.8% 11.6%  2.9%  direct: 6.3%  skip:36.1%  L0:39.7% L1:43.7% BI:16.5%
    x264 [info]: 8x8 transform intra:80.9% inter:50.6%
    x264 [info]: direct mvs  spatial:97.7% temporal:2.3%
    x264 [info]: coded y,uvDC,uvAC intra: 91.0% 76.6% 45.7% inter: 30.6% 22.8% 9.9%
    x264 [info]: i16 v,h,dc,p: 27% 11% 14% 49%
    x264 [info]: i8 v,h,dc,ddl,ddr,vr,hd,vl,hu:  8% 11%  8%  9% 12% 11% 14% 11% 15%
    x264 [info]: i4 v,h,dc,ddl,ddr,vr,hd,vl,hu:  7% 10%  4%  8% 15% 12% 17% 10% 17%
    x264 [info]: i8c dc,h,v,p: 45% 26% 17% 12%
    x264 [info]: Weighted P-Frames: Y:4.0% UV:1.9%
    x264 [info]: ref P L0: 59.3% 14.9% 17.7%  7.0%  1.1%  0.0%
    x264 [info]: ref B L0: 89.8%  8.2%  1.9%
    x264 [info]: ref B L1: 95.2%  4.8%
    x264 [info]: kb/s:7961.40

    Скриншоты

    -

    Релиз подготовлен для просмотра на Apple TV, iPad, iPhone, iPod Touch.
    Для просмотра данного релиза на компьютере с ОС Windows рекомендуется использовать VLC media player
    Скачать .torrent

    Скачать торрент-файл бесплатно и на максимальной скорости!

    Как скачивать? · Что такое торрент? · Рейтинг и ограничения

    !ВНИМАНИЕ!
    Сайт не распространяет и не хранит электронные версии произведений, а занимается лишь лишь предоставлением доступа к создаваемому пользователями каталогу ссылок на торрент-файлы, которые содержат только списки хеш-сумм, убедительная просьба с жалобами обращаться напрямую к пользователю. Файлы для обмена на трекере предоставлены пользователями сайта, и администрация не несёт ответственности за их содержание. Просьба не заливать файлы, защищенные авторскими правами, а также файлы нелегального содержания!


    _________________
    [Профиль] [ЛС]
    Показать сообщения:    
    Ответить на тему

    Текущее время: Сегодня, в 11:48

    Часовой пояс: GMT + 2



    Вы не можете начинать темы
    Вы не можете отвечать на сообщения
    Вы не можете редактировать свои сообщения
    Вы не можете удалять свои сообщения
    Вы не можете голосовать в опросах
    Вы не можете прикреплять файлы к сообщениям
    Вы не можете скачивать файлы