BitTorrentTracker PerecTracker.org
BitTorrentTracker PerecTracker.org
    
Регистрация  ·  Вход
 
 · 
Забыли пароль?

  • Бесплатная поездка / Free Ride (Шена Сосин / Shana Sosin) [2013, США, Триллер, драма, боевик, HDRip] DVO

    Ответить на тему
     
    Автор Сообщение

    Light

    Создавать темы 10-Апр-2016 12:40

           

    [Цитировать]

    Бесплатная поездка / Free RideСтрана: США
    Жанр: Триллер, драма, боевик
    Год выпуска: 2013
    Продолжительность: 01:26:06
    Перевод: Любительский (двухголосый закадровый) Galina Vasyukova & datynet;перевод: Куценко
    Cубтитры: нет
    Режиссер: Шена Сосин / Shana Sosin
    В ролях: Анна Пакуин, Лиана Либерато, Ава Акрес, Дреа де Маттео, Даниэлла Гарсиа-Лоридо, Кэм Жиганде, Бритт Морган, Кайл Т. Хеффнер, Ллойд Оуэн, Эдди Пепитон
    Описание: Фильм основан на реальных событиях. Речь в картине пойдет о наркозависимой молодой матери из 1970-х, которая берет в охапку двух своих дочерей и держит путь во Флориду, рассчитывая, что найдет здесь свое счастье. Но на новом месте единственным шансом заработать становится торговля наркотиками.
    Доп. информация:
    Сэмпл: http://sendfile.su/1223030
    Качество видео: HDRip
    Формат видео: AVI
    Видео: 720x400 (1.80:1), 23.976 fps, XviD MPEG-4 ~2012 kbps avg, 0.29 bit/pixel
    Аудио: 48 kHz, MPEG Layer 3, 2 ch, ~192.00 kbps avg

    MediaInfo

    General
    Complete name : E:\Free.Ride.2013.1080p.WEB-DL.H264-PublicHD\FREE RIDE\Free.Ride.2013. HDRip.avi
    Format : AVI
    Format/Info : Audio Video Interleave
    File size : 1.33 GiB
    Duration : 1h 26mn
    Overall bit rate : 2 214 Kbps
    Writing library : VirtualDub build 35576/release
    Video
    ID : 0
    Format : MPEG-4 Visual
    Format profile : Advanced Simple@L5
    Format settings, BVOP : 2
    Format settings, QPel : No
    Format settings, GMC : No warppoints
    Format settings, Matrix : Default (H.263)
    Codec ID : XVID
    Codec ID/Hint : XviD
    Duration : 1h 26mn
    Bit rate : 2 012 Kbps
    Width : 720 pixels
    Height : 400 pixels
    Display aspect ratio : 16:9
    Frame rate : 23.976 fps
    Color space : YUV
    Chroma subsampling : 4:2:0
    Bit depth : 8 bits
    Scan type : Progressive
    Compression mode : Lossy
    Bits/(Pixel*Frame) : 0.291
    Stream size : 1.21 GiB (91%)
    Writing library : XviD 64
    Audio
    ID : 1
    Format : MPEG Audio
    Format version : Version 1
    Format profile : Layer 3
    Codec ID : 55
    Codec ID/Hint : MP3
    Duration : 1h 26mn
    Bit rate mode : Constant
    Bit rate : 192 Kbps
    Channel(s) : 2 channels
    Sampling rate : 48.0 KHz
    Compression mode : Lossy
    Stream size : 118 MiB (9%)
    Alignment : Split accross interleaves
    Interleave, duration : 42 ms (1.00 video frame)
    Interleave, preload duration : 500 ms

    Скриншот c названием фильма

    Скриншоты








    Скачать .torrent

    Скачать торрент-файл бесплатно и на максимальной скорости!

    Как скачивать? · Что такое торрент? · Рейтинг и ограничения

    !ВНИМАНИЕ!
    Сайт не распространяет и не хранит электронные версии произведений, а занимается лишь лишь предоставлением доступа к создаваемому пользователями каталогу ссылок на торрент-файлы, которые содержат только списки хеш-сумм, убедительная просьба с жалобами обращаться напрямую к пользователю. Файлы для обмена на трекере предоставлены пользователями сайта, и администрация не несёт ответственности за их содержание. Просьба не заливать файлы, защищенные авторскими правами, а также файлы нелегального содержания!


    _________________
    [Профиль] [ЛС]
    Показать сообщения:    
    Ответить на тему

    Текущее время: Сегодня, в 03:12

    Часовой пояс: GMT + 2



    Вы не можете начинать темы
    Вы не можете отвечать на сообщения
    Вы не можете редактировать свои сообщения
    Вы не можете удалять свои сообщения
    Вы не можете голосовать в опросах
    Вы не можете прикреплять файлы к сообщениям
    Вы не можете скачивать файлы