BitTorrentTracker PerecTracker.org
BitTorrentTracker PerecTracker.org
    
Регистрация  ·  Вход
 
 · 
Забыли пароль?

  • Доверие / The Trust (Алекс Брюэр / Alex Brewer, Бенжамин Брюэр / Benjamin Brewer) [2016, Великобритания, Триллер, криминал, BDRip] DVO

    Ответить на тему
     
    Автор Сообщение

    rechyn

    Создавать темы 10-Апр-2016 00:09

           

    [Цитировать]

    Доверие / The Trust-Год выхода: 2016
    Выпущено: Великобритания / Ingenious Media
    Жанр: триллер, криминал
    Продолжительность: 01:31:43
    Перевод: Любительский (двухголосый закадровый) Parovoz Production
    Субтитры: нет-Режиссер:
    Алекс Брюэр / Alex Brewer, Бенжамин Брюэр / Benjamin Brewer-В ролях:
    Николас Кейдж, Элайджа Вуд, Джерри Льюис, Стивен Уильямс, Скай Феррейра, Кевин Уайзман, Лиза Гарднер, Кристи Беран, Джеффри Ховард, Томми Вегас-О фильме:
    Парочка коррумпированных полицейских в отделе улик обнаруживает сейф с нарко-деньгами. Решив похитить тайник, они не подозревают, что вступают в игру за собственные жизни.-Релиз групп
    | | IMDB | КиноПоиск | Сэмпл |-Качество: BDRip [The.Trust.2016.1080p.BluRay.REMUX.AVC.DTS-HD.MA.5.1-FGT]
    Формат: AVI
    Видео: 704x384 (1.83:1), 23.976 fps, XviD build 67 ~2037 kbps avg, 0.31 bit/pixel
    Аудио: 48 kHz, AC3 Dolby Digital, 2/0 (L,R) ch, ~224 kbps-За аудиодорожку спасибо [url=profile.php?mode=viewprofile&u=16452429]JIuI3epIIyJIb[/url]. Рекламы нет!-

    Скриншоты

    -

    MediaInfo

    General
    Complete name                            : D:\Doverie_2016_BDRip_DVO_by_Dalemake.avi
    Format                                   : AVI
    Format/Info                              : Audio Video Interleave
    File size                                : 1.46 GiB
    Duration                                 : 1h 31mn
    Overall bit rate                         : 2 271 Kbps
    Writing application                      : VirtualDubMod 1.5.10.3 | www.virtualdub-fr.org || (build 2550/release)
    Writing library                          : VirtualDubMod build 2550/release
    Video
    ID                                       : 0
    Format                                   : MPEG-4 Visual
    Format profile                           : Advanced Simple@L5
    Format settings, BVOP                    : 1
    Format settings, QPel                    : No
    Format settings, GMC                     : No warppoints
    Format settings, Matrix                  : Custom
    Codec ID                                 : XVID
    Codec ID/Hint                            : XviD
    Duration                                 : 1h 31mn
    Bit rate                                 : 2 038 Kbps
    Width                                    : 704 pixels
    Height                                   : 384 pixels
    Display aspect ratio                     : 1.85:1
    Frame rate                               : 23.976 (23976/1000) fps
    Color space                              : YUV
    Chroma subsampling                       : 4:2:0
    Bit depth                                : 8 bits
    Scan type                                : Progressive
    Compression mode                         : Lossy
    Bits/(Pixel*Frame)                       : 0.314
    Stream size                              : 1.31 GiB (90%)
    Writing library                          : XviD 67
    Audio
    ID                                       : 1
    Format                                   : AC-3
    Format/Info                              : Audio Coding 3
    Mode extension                           : CM (complete main)
    Format settings, Endianness              : Big
    Codec ID                                 : 2000
    Duration                                 : 1h 31mn
    Bit rate mode                            : Constant
    Bit rate                                 : 224 Kbps
    Channel(s)                               : 2 channels
    Channel positions                        : Front: L R
    Sampling rate                            : 48.0 KHz
    Frame rate                               : 31.250 fps (1536 spf)
    Compression mode                         : Lossy
    Stream size                              : 147 MiB (10%)
    Alignment                                : Split accross interleaves
    Interleave, duration                     : 42 ms (1.00 video frame)
    Interleave, preload duration             : 500 ms
    -
    Скачать .torrent

    Скачать торрент-файл бесплатно и на максимальной скорости!

    Как скачивать? · Что такое торрент? · Рейтинг и ограничения

    !ВНИМАНИЕ!
    Сайт не распространяет и не хранит электронные версии произведений, а занимается лишь лишь предоставлением доступа к создаваемому пользователями каталогу ссылок на торрент-файлы, которые содержат только списки хеш-сумм, убедительная просьба с жалобами обращаться напрямую к пользователю. Файлы для обмена на трекере предоставлены пользователями сайта, и администрация не несёт ответственности за их содержание. Просьба не заливать файлы, защищенные авторскими правами, а также файлы нелегального содержания!


    _________________
    [Профиль] [ЛС]
    Показать сообщения:    
    Ответить на тему

    Текущее время: Сегодня, в 18:06

    Часовой пояс: GMT + 2



    Вы не можете начинать темы
    Вы не можете отвечать на сообщения
    Вы не можете редактировать свои сообщения
    Вы не можете удалять свои сообщения
    Вы не можете голосовать в опросах
    Вы не можете прикреплять файлы к сообщениям
    Вы не можете скачивать файлы