BitTorrentTracker PerecTracker.org
BitTorrentTracker PerecTracker.org
    
Регистрация  ·  Вход
 
 · 
Забыли пароль?

  • Выживший / The Revenant (Алехандро Гонсалес Иньярриту / Alejandro G. Iñárritu) [2015, триллер, драма, приключения, BDRip-AVC] DUB + subs

    Ответить на тему
     
    Автор Сообщение

    Light

    Создавать темы 10-Апр-2016 00:09

           

    [Цитировать]

    Выживший / The Revenant«До последней капли крови»-
    Страна: США, Гонконг, Тайвань, Канада
    Жанр: триллер, драма, приключения, вестерн
    Год выпуска: 2015
    Продолжительность: 02:36:21-Перевод: Профессиональный (дублированный)
    Субтитры: Русские (форс. + полные), Украинские (форс. + полные), Английские (форс. + полные).-Режиссер: Алехандро Гонсалес Иньярриту / Alejandro G. Iñárritu-В ролях: Леонардо ДиКаприо / Leonardo DiCaprio (Hugh Glass), Том Харди / Tom Hardy (John Fitzgerald), Донал Глисон / Domhnall Gleeson (Captain Andrew Henry), Уилл Поултер / Will Poulter (Bridger), Форрест Гудлак / Forrest Goodluck (Hawk), Пол Андерсон / Paul Anderson (Anderson), Кристоффер Йонер / Kristoffer Joner (Murphy), Джошуа Бёрдж / Joshua Burge (Stubby Bill), Дуан Ховард / Duane Howard (Elk Dog), Мила Нахеко / Melaw Nakehk'o (Powaqa), Фабрис Адд / Fabrice Adde (Toussaint), Arthur RedCloud-Описание:
    Охотник Хью Гласс серьезно ранен на неизведанных просторах американского Дикого Запада. Товарищ Хью по отряду покорителей новых земель Джон Фицжеральд предательски оставляет его умирать в одиночестве. Теперь у Гласса осталось только одно оружие - его сила воли. Он готов бросить вызов первобытной природе, суровой зиме и враждебным племенам индейцев, только чтобы выжить и отомстить Фицжеральду.
    - -Качество видео: BDRip-AVC /исходник: The.Revenant.2015.1080p.Blu-ray.AVC.DTS-HD.MA.7.1-BAKED/
    Формат видео: MKV-Видео: x.264 / 1022 x 428 / 2.4 / 1549 kbps / 23,976 fps
    Аудио: AC3 Dolby Digital, 48 KHz, ~384 kbps, 3/2 (L,C,R,l,r) + LFE ch /RUS/-СЭМПЛ-

    FAQ по просмотру MKV/h.264/AAC
    MediaInfo/log

    log

    x264 [info]: frame I:1194  Avg QP:16.60  size: 59713
    x264 [info]: frame P:56263 Avg QP:20.97  size: 16617
    x264 [info]: frame B:167471 Avg QP:22.55  size:  4797
    x264 [info]: consecutive B-frames:  3.1%  5.3%  9.3% 33.3% 18.1% 20.0%  3.5%  4.4%  1.0%  0.7%  1.2%
    x264 [info]: mb I  I16..4:  7.2% 70.8% 22.0%
    x264 [info]: mb P  I16..4:  0.7%  7.3%  1.2%  P16..4: 42.8% 21.1% 17.2%  1.0%  0.4%    skip: 8.3%
    x264 [info]: mb B  I16..4:  0.0%  0.7%  0.2%  B16..8: 39.7%  9.3%  2.8%  direct: 4.3%  skip:43.0%  L0:39.9% L1:47.8% BI:12.3%
    x264 [info]: 8x8 transform intra:77.3% inter:57.7%
    x264 [info]: direct mvs  spatial:95.1% temporal:4.9%
    x264 [info]: coded y,uvDC,uvAC intra: 84.8% 55.8% 21.5% inter: 19.9% 8.7% 2.3%
    x264 [info]: i16 v,h,dc,p: 30% 13%  8% 49%
    x264 [info]: i8 v,h,dc,ddl,ddr,vr,hd,vl,hu:  7%  9%  5%  9% 15% 12% 16% 11% 16%
    x264 [info]: i4 v,h,dc,ddl,ddr,vr,hd,vl,hu:  8%  7%  4%  9% 16% 13% 17% 11% 16%
    x264 [info]: i8c dc,h,v,p: 36% 33% 18% 13%
    x264 [info]: Weighted P-Frames: Y:98.6% UV:2.3%
    x264 [info]: ref P L0: 55.5% 15.6% 11.3%  4.2%  3.3%  2.6%  2.1%  1.3%  1.1%  1.0%  0.9%  0.9%  0.2%  0.0%
    x264 [info]: ref B L0: 78.6%  8.4%  4.9%  2.0%  1.9%  1.2%  1.2%  0.7%  0.6%  0.4%  0.2%
    x264 [info]: ref B L1: 93.5%  6.5%
    x264 [info]: SSIM Mean Y:0.9793513 (16.851db)
    x264 [info]: kb/s:1543.09
    encoded 224928 frames, 27.04 fps, 1543.09 kb/s, 1725.7 MB
    General
    Complete name : J:\Vyzhivshii.2015.DUB.BDRip-AVC.AC3.x264-Vaippp.mkv
    Format : Matroska
    Format version : Version 2
    File size : 2.11 GiB
    Duration : 2h 36mn
    Overall bit rate : 1 929 Kbps
    Movie name : The Revenant (2015) - Vaippp
    Encoded date : UTC 2016-04-09 12:40:37
    Writing application : mkvmerge v9.0.1 ('Obstacles') 64bit
    Writing library : libebml v1.3.3 + libmatroska v1.4.4
    Video
    ID : 1
    Format : AVC
    Format/Info : Advanced Video Codec
    Format profile : High@L4.1
    Format settings, CABAC : Yes
    Format settings, ReFrames : 12 frames
    Codec ID : V_MPEG4/ISO/AVC
    Duration : 2h 36mn
    Bit rate : 1 549 Kbps
    Width : 1 022 pixels
    Height : 428 pixels
    Display aspect ratio : 2.40:1
    Frame rate mode : Constant
    Frame rate : 23.976 (24000/1001) fps
    Color space : YUV
    Chroma subsampling : 4:2:0
    Bit depth : 8 bits
    Scan type : Progressive
    Bits/(Pixel*Frame) : 0.148
    Stream size : 1.69 GiB (80%)
    Title : Vaippp @ 1543.09 Kbps
    Writing library : x264 core 148 r2665+53 6629127 t_mod_Custom [8-bit@all X86_64]
    Encoding settings : cabac=1 / ref=12 / deblock=1:-2:-1 / analyse=0x3:0x133 / me=umh / subme=10 / psy=1 / fade_compensate=0.00 / psy_rd=1.02:0.00 / mixed_ref=1 / me_range=48 / chroma_me=1 / trellis=2 / 8x8dct=1 / cqm=0 / deadzone=21,11 / fast_pskip=0 / chroma_qp_offset=-2 / threads=12 / lookahead_threads=3 / sliced_threads=0 / nr=0 / decimate=0 / interlaced=0 / bluray_compat=0 / constrained_intra=0 / fgo=0 / bframes=10 / b_pyramid=2 / b_adapt=2 / b_bias=0 / direct=3 / weightb=1 / open_gop=0 / weightp=2 / keyint=240 / keyint_min=22 / scenecut=40 / intra_refresh=0 / rc_lookahead=60 / rc=2pass / mbtree=0 / bitrate=1549 / ratetol=1.0 / qcomp=0.65 / qpmin=0:0:0 / qpmax=69:69:69 / qpstep=4 / cplxblur=20.0 / qblur=0.5 / vbv_maxrate=50000 / vbv_bufsize=62500 / nal_hrd=none / filler=0 / ip_ratio=1.40 / pb_ratio=1.30 / aq=3:0.85 / aq-sensitivity=10.00 / aq-factor=1.00:1.00:1.00 / aq2=0 / aq3=0
    Language : English
    Default : Yes
    Forced : No
    Audio
    ID : 2
    Format : AC-3
    Format/Info : Audio Coding 3
    Mode extension : CM (complete main)
    Format settings, Endianness : Big
    Codec ID : A_AC3
    Duration : 2h 36mn
    Bit rate mode : Constant
    Bit rate : 384 Kbps
    Channel(s) : 6 channels
    Channel positions : Front: L C R, Side: L R, LFE
    Sampling rate : 48.0 KHz
    Frame rate : 31.250 fps (1536 spf)
    Compression mode : Lossy
    Stream size : 429 MiB (20%)
    Title : AC3 DD 5.1 @ 384 Kbps DUB - iTunes
    Language : Russian
    Default : Yes
    Forced : No
    Text #1
    ID : 3
    Format : UTF-8
    Codec ID : S_TEXT/UTF8
    Codec ID/Info : UTF-8 Plain Text
    Duration : 2h 35mn
    Bit rate : 5 bps
    Count of elements : 146
    Stream size : 6.20 KiB (0%)
    Title : Forced
    Language : Russian
    Default : Yes
    Forced : No
    Text #2
    ID : 4
    Format : UTF-8
    Codec ID : S_TEXT/UTF8
    Codec ID/Info : UTF-8 Plain Text
    Duration : 2h 35mn
    Bit rate : 38 bps
    Count of elements : 847
    Stream size : 43.2 KiB (0%)
    Title : Full
    Language : Russian
    Default : No
    Forced : No
    Text #3
    ID : 5
    Format : UTF-8
    Codec ID : S_TEXT/UTF8
    Codec ID/Info : UTF-8 Plain Text
    Duration : 2h 35mn
    Bit rate : 5 bps
    Count of elements : 146
    Stream size : 5.91 KiB (0%)
    Title : Forced
    Language : Ukrainian
    Default : No
    Forced : No
    Text #4
    ID : 6
    Format : UTF-8
    Codec ID : S_TEXT/UTF8
    Codec ID/Info : UTF-8 Plain Text
    Duration : 2h 35mn
    Bit rate : 39 bps
    Count of elements : 846
    Stream size : 44.7 KiB (0%)
    Title : Full
    Language : Ukrainian
    Default : No
    Forced : No
    Text #5
    ID : 7
    Format : UTF-8
    Codec ID : S_TEXT/UTF8
    Codec ID/Info : UTF-8 Plain Text
    Duration : 2h 20mn
    Bit rate : 3 bps
    Count of elements : 135
    Stream size : 3.60 KiB (0%)
    Title : Forced
    Language : English
    Default : No
    Forced : No
    Text #6
    ID : 8
    Format : UTF-8
    Codec ID : S_TEXT/UTF8
    Codec ID/Info : UTF-8 Plain Text
    Duration : 2h 20mn
    Bit rate : 25 bps
    Count of elements : 834
    Stream size : 26.8 KiB (0%)
    Title : Full
    Language : English
    Default : No
    Forced : No
    Menu
    00:00:00.000 : en:Chapter 01
    00:05:04.846 : en:Chapter 02
    00:07:58.311 : en:Chapter 03
    00:13:18.964 : en:Chapter 04
    00:21:10.686 : en:Chapter 05
    00:28:21.658 : en:Chapter 06
    00:37:07.767 : en:Chapter 07
    00:44:00.346 : en:Chapter 08
    00:48:14.975 : en:Chapter 09
    00:51:42.265 : en:Chapter 10
    00:56:51.032 : en:Chapter 11
    00:59:50.753 : en:Chapter 12
    01:03:31.766 : en:Chapter 13
    01:11:52.433 : en:Chapter 14
    01:16:36.133 : en:Chapter 15
    01:21:22.377 : en:Chapter 16
    01:28:31.139 : en:Chapter 17
    01:37:29.969 : en:Chapter 18
    01:48:44.643 : en:Chapter 19
    01:53:08.782 : en:Chapter 20
    01:59:05.930 : en:Chapter 21
    02:02:56.702 : en:Chapter 22
    02:15:45.262 : en:Chapter 23
    02:22:51.020 : en:Chapter 24

    Скриншоты



    Сравнениеhttp://perectracker.org/http://perectracker.org/viewtopic.php?t=5193153 http://screenshotcomparison.com/comparison/168659/
    Скачать .torrent

    Скачать торрент-файл бесплатно и на максимальной скорости!

    Как скачивать? · Что такое торрент? · Рейтинг и ограничения

    !ВНИМАНИЕ!
    Сайт не распространяет и не хранит электронные версии произведений, а занимается лишь лишь предоставлением доступа к создаваемому пользователями каталогу ссылок на торрент-файлы, которые содержат только списки хеш-сумм, убедительная просьба с жалобами обращаться напрямую к пользователю. Файлы для обмена на трекере предоставлены пользователями сайта, и администрация не несёт ответственности за их содержание. Просьба не заливать файлы, защищенные авторскими правами, а также файлы нелегального содержания!


    _________________
    [Профиль] [ЛС]
    Показать сообщения:    
    Ответить на тему

    Текущее время: Сегодня, в 00:12

    Часовой пояс: GMT + 2



    Вы не можете начинать темы
    Вы не можете отвечать на сообщения
    Вы не можете редактировать свои сообщения
    Вы не можете удалять свои сообщения
    Вы не можете голосовать в опросах
    Вы не можете прикреплять файлы к сообщениям
    Вы не можете скачивать файлы