BitTorrentTracker PerecTracker.org
BitTorrentTracker PerecTracker.org
    
Регистрация  ·  Вход
 
 · 
Забыли пароль?

  • (Euro-House) [CDM] Tatjana (Simic) - Feel Good (Maxi CD Single) - 1993, FLAC (tracks+.cue), lossless

    Ответить на тему
     
    Автор Сообщение

    Columb

    Создавать темы 22-Янв-2014 07:51

           

    [Цитировать]

    Tatjana - Feel Good (Maxi CD Single)
    Жанр: Euro-House
    Носитель: CDM
    Страна-производитель диска: Netherlands
    Год издания: 1993
    Издатель (лейбл): Polydor
    Номер по каталогу: 859 443-2
    Аудиокодек: FLAC (*.flac)
    Тип рипа: tracks+.cue
    Битрейт аудио: lossless
    Продолжительность: 00:15:14
    Источник (релизер): own rip
    Наличие сканов в содержимом раздачи: нет
    Треклист:
    1. Tatjana - Feel Good (Radio Edit) (3:29)
    2. Tatjana - Feel Good (Extended Version) (4:36)
    3. Tatjana - Feel Good (Jazz Version) (3:50)
    4. Tatjana - Dreamgood (3:19)

    Лог создания рипа

    Exact Audio Copy V1.0 beta 3 from 29. August 2011
    EAC extraction logfile from 19. January 2014, 9:06
    Tatjana / Feel Good (Maxi CD Single)
    Used drive : TSSTcorpCDDVDW SN-208BB Adapter: 0 ID: 1
    Read mode : SecureUtilize accurate stream : YesDefeat audio cache : YesMake use of C2 pointers : No
    Read offset correction : 6Overread into Lead-In and Lead-Out : NoFill up missing offset samples with silence : YesDelete leading and trailing silent blocks : NoNull samples used in CRC calculations : YesUsed interface : Native Win32 interface for Win NT & 2000Gap handling : Appended to previous track
    Used output format : User Defined EncoderSelected bitrate : 1024 kBit/sQuality : HighAdd ID3 tag : NoCommand line compressor : C:\Program Files (x86)\Exact Audio Copy\Flac\flac.exeAdditional command line options : -8 -V -T "artist=%artist%" -T "title=%title%" -T "album=%albumtitle%" -T "date=%year%" -T "tracknumber=%tracknr%" -T "genre=%genre%" %source%
    TOC of the extracted CD
    Track | Start | Length | Start sector | End sector --------------------------------------------------------- 1 | 0:00.33 | 3:29.37 | 33 | 15744 2 | 3:29.70 | 4:36.38 | 15745 | 36482 3 | 8:06.33 | 3:49.62 | 36483 | 53719 4 | 11:56.20 | 3:19.13 | 53720 | 68657
    Track 1
    Filename E:\Torrent\Tatjana - Feel Good (Maxi CD Single)\01 Feel Good (Radio Edit).wav
    Pre-gap length 0:00:02.33
    Peak level 79.4 % Extraction speed 1.4 X Track quality 99.9 % Test CRC 5F3AB2E6 Copy CRC 5F3AB2E6 Track not present in AccurateRip database Copy OK
    Track 2
    Filename E:\Torrent\Tatjana - Feel Good (Maxi CD Single)\02 Feel Good (Extended Version).wav
    Pre-gap length 0:00:01.37
    Peak level 76.3 % Extraction speed 1.9 X Track quality 100.0 % Test CRC FC200568 Copy CRC FC200568 Track not present in AccurateRip database Copy OK
    Track 3
    Filename E:\Torrent\Tatjana - Feel Good (Maxi CD Single)\03 Feel Good (Jazz Version).wav
    Pre-gap length 0:00:01.13
    Peak level 65.0 % Extraction speed 2.0 X Track quality 100.0 % Test CRC 1DCFFD6F Copy CRC 1DCFFD6F Track not present in AccurateRip database Copy OK
    Track 4
    Filename E:\Torrent\Tatjana - Feel Good (Maxi CD Single)\04 Dreamgood.wav
    Pre-gap length 0:00:01.12
    Peak level 64.8 % Extraction speed 2.1 X Track quality 100.0 % Test CRC 49C5D7CB Copy CRC 49C5D7CB Track not present in AccurateRip database Copy OK
    None of the tracks are present in the AccurateRip database
    No errors occurred
    End of status report
    ==== Log checksum C93455777DA1F432751D62D4EA2A35D8466E562364B8C1593E08A71CA0A0965E ====

    Содержание индексной карты (.CUE)

    REM GENRE Euro-HouseREM DATE 1993REM DISCID 2A039304REM COMMENT "ExactAudioCopy v1.0b3"CATALOG 0042285944327PERFORMER "Tatjana"TITLE "Feel Good (Maxi CD Single)"FILE "01 Feel Good (Radio Edit).wav" WAVE TRACK 01 AUDIO TITLE "Feel Good (Radio Edit) " PERFORMER "Tatjana" PREGAP 00:00:33 INDEX 01 00:00:00 TRACK 02 AUDIO TITLE "Feel Good (Extended Version) " PERFORMER "Tatjana" INDEX 00 03:28:00FILE "02 Feel Good (Extended Version).wav" WAVE INDEX 01 00:00:00 TRACK 03 AUDIO TITLE "Feel Good (Jazz Version) " PERFORMER "Tatjana" INDEX 00 04:35:25FILE "03 Feel Good (Jazz Version).wav" WAVE INDEX 01 00:00:00 TRACK 04 AUDIO TITLE "Dreamgood " PERFORMER "Tatjana" INDEX 00 03:48:50FILE "04 Dreamgood.wav" WAVE INDEX 01 00:00:00
    Скачать .torrent

    Скачать торрент-файл бесплатно и на максимальной скорости!

    Как скачивать? · Что такое торрент? · Рейтинг и ограничения

    !ВНИМАНИЕ!
    Сайт не распространяет и не хранит электронные версии произведений, а занимается лишь лишь предоставлением доступа к создаваемому пользователями каталогу ссылок на торрент-файлы, которые содержат только списки хеш-сумм, убедительная просьба с жалобами обращаться напрямую к пользователю. Файлы для обмена на трекере предоставлены пользователями сайта, и администрация не несёт ответственности за их содержание. Просьба не заливать файлы, защищенные авторскими правами, а также файлы нелегального содержания!

    [Профиль] [ЛС]
    Показать сообщения:    
    Ответить на тему

    Текущее время: Сегодня, в 18:06

    Часовой пояс: GMT + 2



    Вы не можете начинать темы
    Вы не можете отвечать на сообщения
    Вы не можете редактировать свои сообщения
    Вы не можете удалять свои сообщения
    Вы не можете голосовать в опросах
    Вы не можете прикреплять файлы к сообщениям
    Вы не можете скачивать файлы