BitTorrentTracker PerecTracker.org
BitTorrentTracker PerecTracker.org
    
Регистрация  ·  Вход
 
 · 
Забыли пароль?

  • День радио (Дмитрий Дьяченко) [2008, Россия, комедия, HDRip]

    Ответить на тему
     
    Автор Сообщение

    Flirldrerve

    Создавать темы 10-Апр-2016 00:09

           

    [Цитировать]

    День радио
    Страна: Россия
    Жанр: комедия
    Год выпуска: 2008
    Продолжительность: 01:43:02--Режиссер: Дмитрий Дьяченко--В ролях: Леонид Барац, Александр Демидов, Камиль Ларин, Ростислав Хаит, Михаил Козырев, Нонна Гришаева, Дмитрий Марьянов, Николай Фоменко, Максим Виторган, Анна Касаткина-Барац, Михаил Полицеймако, Анастасия Сапожникова, Фёдор Добронравов, Алексей Хардиков, Михаил Бескоровайный, Константин Чепурин, Эммануил Виторган, Георгий Мартиросян, Сергей Беляев, Владимир Шахрин, Владимир Бегунов, Алексей Кортнев, Илья Лагутенко, Олег Скрипка, Диана Арбенина, Максим Покровский, Ольга Кузина, Сергей Мазаев, Сергей Бабкин, Игорь Гоцманов, Амалия Мордвинова--Описание: Один день из жизни модной московской радиостанции. Не самый лучший день — рушатся все планы, все валится из рук… И именно в тот момент, когда на станции в прямом эфире вот-вот должен начаться «живой» марафон, а популярные российские рок-группы придут в эфир, чтобы поддержать… впрочем, это уже неважно, потому что тема марафона перехвачена конкурентами и активно обсуждается в эфире «вражеской» радиостанции. Но марафон отменять нельзя!
    Рабочий день обещает стать последним для всего творческого состава, если срочно не найдется новая тема. А тем временем из Находки вышел маленький катер с лучшими представителями Благовещенского областного цирка — медведь, обезьяна, два пуделя, петух, козел, кабан, которые плывут на гастроли в Японию. И если бы кто-то из команды катера не слил налево полбака солярки, а еще кто-то — еще полбака, то они бы, возможно, даже и доплыли бы.--Доп. информация: Kinopoisk | Sample |--Качество: HDRip
    Формат: AVI
    Видео: 688x368 (1.87:1), 23.976 fps, XviD build 73 ~1554 kbps avg, 0.256 bit/pixel
    Аудио: 48 kHz, AC3 Dolby Digital, 3/2 (L,C,R,l,r) + LFE ch, ~448 kbps avg

    MediaInfo

    General
    Complete name : День радио.avi
    Format : AVI
    Format/Info : Audio Video Interleave
    File size : 1.45 GiB
    Duration : 1h 43mn
    Overall bit rate : 2 011 Kbps
    Writing application : VirtualDubMod 1.5.10.2 (build 2540/release)
    Writing library : VirtualDubMod build 2540/release
    Video
    ID : 0
    Format : MPEG-4 Visual
    Format profile : Advanced Simple@L5
    Format settings, BVOP : 1
    Format settings, QPel : No
    Format settings, GMC : No warppoints
    Format settings, Matrix : Custom
    Codec ID : XVID
    Codec ID/Hint : XviD
    Duration : 1h 43mn
    Bit rate : 1 554 Kbps
    Width : 688 pixels
    Height : 368 pixels
    Display aspect ratio : 1.85:1
    Frame rate : 23.976 (23976/1000) fps
    Color space : YUV
    Chroma subsampling : 4:2:0
    Bit depth : 8 bits
    Scan type : Progressive
    Compression mode : Lossy
    Bits/(Pixel*Frame) : 0.256
    Stream size : 1.12 GiB (77%)
    Writing library : XviD 73
    Audio
    ID : 1
    Format : AC-3
    Format/Info : Audio Coding 3
    Mode extension : CM (complete main)
    Format settings, Endianness : Big
    Codec ID : 2000
    Duration : 1h 43mn
    Bit rate mode : Constant
    Bit rate : 448 Kbps
    Channel(s) : 6 channels
    Channel positions : Front: L C R, Side: L R, LFE
    Sampling rate : 48.0 KHz
    Frame rate : 31.250 fps (1536 spf)
    Compression mode : Lossy
    Stream size : 330 MiB (22%)
    Alignment : Split accross interleaves
    Interleave, duration : 42 ms (1.00 video frame)
    Interleave, preload duratio : 500 ms

    Скриншоты

    Скачать .torrent

    Скачать торрент-файл бесплатно и на максимальной скорости!

    Как скачивать? · Что такое торрент? · Рейтинг и ограничения

    !ВНИМАНИЕ!
    Сайт не распространяет и не хранит электронные версии произведений, а занимается лишь лишь предоставлением доступа к создаваемому пользователями каталогу ссылок на торрент-файлы, которые содержат только списки хеш-сумм, убедительная просьба с жалобами обращаться напрямую к пользователю. Файлы для обмена на трекере предоставлены пользователями сайта, и администрация не несёт ответственности за их содержание. Просьба не заливать файлы, защищенные авторскими правами, а также файлы нелегального содержания!


    _________________
    [Профиль] [ЛС]
    Показать сообщения:    
    Ответить на тему

    Текущее время: Сегодня, в 20:54

    Часовой пояс: GMT + 2



    Вы не можете начинать темы
    Вы не можете отвечать на сообщения
    Вы не можете редактировать свои сообщения
    Вы не можете удалять свои сообщения
    Вы не можете голосовать в опросах
    Вы не можете прикреплять файлы к сообщениям
    Вы не можете скачивать файлы